<?xml version="1.0" standalone="no"?>
<!DOCTYPE svg PUBLIC "-//W3C//DTD SVG 1.1//EN" "http://www.w3.org/Graphics/SVG/1.1/DTD/svg11.dtd" >
<svg xmlns="http://www.w3.org/2000/svg">
<metadata></metadata>
<defs>
<font id="existencelight" horiz-adv-x="170" >
<font-face units-per-em="1000" ascent="800" descent="-200" />
<missing-glyph horiz-adv-x="325" />
<glyph unicode="fi" horiz-adv-x="429" d="M21 506v30h45v115q0 95 42.5 149t108.5 54q60 0 101 -46.5t41 -97.5h-30q0 39 -33 76.5t-79 37.5q-52 0 -86.5 -45.5t-34.5 -127.5v-115h158v-30h-158v-799h-30v799h-45zM329 0v536h30v-536h-30z" />
<glyph unicode="fl" horiz-adv-x="421" d="M21 506v30h45v135q0 92 52.5 148t128.5 56q65 0 108 -24v-851h-30v832q-34 13 -78 13q-64 0 -107.5 -47.5t-43.5 -126.5v-135h158v-30h-158v-799h-30v799h-45z" />
<glyph unicode="fb" horiz-adv-x="791" d="M21 506v30h45v135q0 92 52.5 148t128.5 56q65 0 108 -24v-311q34 2 46 2q161 0 250.5 -80.5t89.5 -192.5q0 -111 -89.5 -191.5t-249.5 -80.5q-38 0 -77 3v832q-34 13 -78 13q-64 0 -107.5 -47.5t-43.5 -126.5v-135h158v-30h-158v-799h-30v799h-45zM355 28q17 -1 47 -1 q146 0 227.5 71.5t81.5 170.5t-81.5 171t-228.5 72q-14 0 -46 -2v-482z" />
<glyph unicode="fh" horiz-adv-x="802" d="M21 506v30h45v135q0 92 52.5 148t128.5 56q65 0 108 -24v-358q73 53 167 53q70 0 126.5 -34t80.5 -100q13 -33 13 -70v-342h-30v340q0 82 -57.5 129t-133.5 47q-97 0 -166 -61v-455h-30v832q-34 13 -78 13q-64 0 -107.5 -47.5t-43.5 -126.5v-135h158v-30h-158v-799h-30 v799h-45z" />
<glyph unicode="fj" horiz-adv-x="429" d="M21 506v30h45v115q0 95 43 149t109 54q60 0 101.5 -46.5t41.5 -97.5h-30q0 39 -33.5 76.5t-79.5 37.5q-52 0 -87 -45.5t-35 -127.5v-115h158v-30h-158v-655h-30v655h-45zM92 -226l26 14q10 -20 38 -35.5t53 -15.5q52 0 87 45.5t35 127.5v626h30v-626q0 -95 -43 -149 t-109 -54q-33 0 -68.5 20t-48.5 47z" />
<glyph unicode="fk" horiz-adv-x="829" d="M21 506v30h45v135q0 92 52.5 148t128.5 56q65 0 108 -24v-603l406 299l18 -24l-334 -247l334 -263l-18 -24l-341 269l-65 -48v-210h-30v832q-34 13 -78 13q-64 0 -107.5 -47.5t-43.5 -126.5v-135h158v-30h-158v-799h-30v799h-45z" />
<glyph unicode=" "  horiz-adv-x="325" />
<glyph unicode="&#x09;" horiz-adv-x="325" />
<glyph unicode="&#xa0;" horiz-adv-x="325" />
<glyph unicode="!" horiz-adv-x="184" d="M62 0v60h60v-60h-60zM77 164v536h30v-536h-30z" />
<glyph unicode="&#x22;" horiz-adv-x="244" d="M62 560v140h30v-140h-30zM152 560v140h30v-140h-30z" />
<glyph unicode="#" horiz-adv-x="535" d="M28 190l5 30h104l37 245h-105l5 30h104l31 205h31l-31 -205h172l31 205h31l-31 -205h105l-5 -30h-105l-37 -245h106l-5 -30h-105l-29 -190h-30l28 190h-172l-29 -190h-30l28 190h-104zM167 220h173l37 245h-173z" />
<glyph unicode="$" horiz-adv-x="506" d="M50 521q0 79 53 132.5t135 60.5v91h30v-90q62 -2 111 -32.5t73 -86.5l-28 -12q-43 96 -156 101v-325q188 -66 188 -181q0 -79 -53.5 -132.5t-134.5 -60.5v-91h-30v90q-63 2 -112 32.5t-72 86.5l28 12q20 -47 61.5 -73t94.5 -28v324q-83 30 -135.5 72.5t-52.5 109.5z M80 521q0 -92 158 -150v313q-69 -7 -113.5 -52.5t-44.5 -110.5zM268 16q69 6 113.5 51.5t44.5 111.5q0 89 -158 150v-313z" />
<glyph unicode="%" horiz-adv-x="507" d="M60 7l361 700l26 -14l-361 -700zM60 623q0 34 24 58t58 24t58 -24t24 -58t-24 -58t-58 -24t-58 24t-24 58zM90 623q0 -22 15 -37t37 -15t37 15t15 37t-15 37t-37 15t-37 -15t-15 -37zM283 76q0 34 24 58t58 24t58 -24t24 -58t-24 -58t-58 -24t-58 24t-24 58zM313 76 q0 -22 15 -37t37 -15t37 15t15 37t-15 37t-37 15t-37 -15t-15 -37z" />
<glyph unicode="&#x26;" horiz-adv-x="487" d="M55 194q0 63 43 113t115 72q-50 20 -77.5 60t-27.5 93q0 79 57 126t143 47q13 0 35 -2l-2 -30q-22 2 -33 2q-73 0 -121.5 -38.5t-48.5 -104.5q0 -61 45.5 -100.5t122.5 -39.5h58v47h30v-47h48v-30h-48v-361q-32 -3 -62 -3q-120 0 -198.5 53.5t-78.5 142.5zM85 194 q0 -76 70 -121t177 -45q20 0 32 1v333h-58q-96 0 -158.5 -49t-62.5 -119z" />
<glyph unicode="'" horiz-adv-x="130" d="M50 560v140h30v-140h-30z" />
<glyph unicode="(" horiz-adv-x="263" d="M55 350q0 125 47 244t139 216l22 -20q-88 -93 -133 -207t-45 -233q0 -120 45 -233.5t133 -206.5l-22 -20q-92 97 -139 216t-47 244z" />
<glyph unicode=")" horiz-adv-x="263" d="M0 -90q88 93 133 206.5t45 233.5q0 119 -45 233t-133 207l22 20q92 -97 139 -216t47 -244t-47 -244t-139 -216z" />
<glyph unicode="*" horiz-adv-x="394" d="M50 556l10 28l122 -40v130h30v-130l124 40l8 -28l-124 -40l77 -104l-24 -18l-77 104l-75 -103l-24 18l75 103z" />
<glyph unicode="+" horiz-adv-x="460" d="M50 294v30h165v165h30v-165h165v-30h-165v-165h-30v165h-165z" />
<glyph unicode="," horiz-adv-x="184" d="M62 0v60h60v-85q0 -71 -47 -88l-10 28q27 9 27 60v25h-30z" />
<glyph unicode="-" horiz-adv-x="360" d="M50 294v30h260v-30h-260z" />
<glyph unicode="." horiz-adv-x="184" d="M62 0v60h60v-60h-60z" />
<glyph unicode="/" horiz-adv-x="455" d="M20 -34l387 829l28 -12l-387 -829z" />
<glyph unicode="0" horiz-adv-x="536" d="M60 350q0 94 22.5 175.5t71 135.5t114.5 54t114.5 -54t71 -135.5t22.5 -175.5q0 -95 -22.5 -176t-71 -135t-114.5 -54t-114.5 54t-71 135t-22.5 176zM90 350q0 -87 19 -161.5t60.5 -124t98.5 -49.5q56 0 97.5 49.5t61 124t19.5 161.5q0 86 -19.5 161t-61 124.5 t-97.5 49.5q-57 0 -98.5 -50t-60.5 -124t-19 -161z" />
<glyph unicode="1" horiz-adv-x="526" d="M98 453l222 279v-732h-30v646l-168 -211z" />
<glyph unicode="2" horiz-adv-x="526" d="M36 0l287 331q31 36 48.5 58.5t35.5 60.5t18 72q0 76 -54.5 119.5t-124.5 43.5q-115 0 -166 -100l-27 12q59 118 193 118q83 0 146 -50.5t63 -137.5q0 -41 -19 -84.5t-38.5 -69t-55.5 -66.5l-242 -277h374v-30h-438z" />
<glyph unicode="3" horiz-adv-x="526" d="M56 -1l5 30q30 -5 68 -5q126 0 212.5 52t86.5 135q0 51 -39.5 95t-103.5 66q-67 23 -175 23l195 275h-224v30h282l-196 -277q72 -3 128 -22q68 -23 115.5 -75.5t47.5 -114.5q0 -72 -53 -123t-125 -72.5t-151 -21.5q-43 0 -73 5z" />
<glyph unicode="4" horiz-adv-x="526" d="M43 129l348 608v-578h84v-30h-84v-129h-30v129h-318zM95 159h266v465z" />
<glyph unicode="5" horiz-adv-x="526" d="M55 -1l5 30q30 -5 68 -5q126 0 212.5 52t86.5 135q0 51 -39.5 95t-103.5 66q-66 22 -133 22q-24 0 -61 -2v308h273v-30h-243v-247q18 1 31 1q72 0 143 -23q68 -23 115.5 -75.5t47.5 -114.5q0 -72 -53 -123t-125 -72.5t-151 -21.5q-43 0 -73 5z" />
<glyph unicode="6" horiz-adv-x="526" d="M60 193v216q0 46 7 86.5t25.5 79.5t47 67t74 45t103.5 17q17 0 45 -2v-30q-28 2 -44 2q-228 0 -228 -265v-109q28 46 75 73.5t103 27.5q86 0 147 -61t61 -147t-61 -147t-147 -61t-147 61t-61 147zM90 193q0 -73 52 -125.5t126 -52.5t126 52.5t52 125.5t-52 125.5 t-126 52.5t-126 -52.5t-52 -125.5z" />
<glyph unicode="7" horiz-adv-x="526" d="M60 670v30h409l-237 -705l-29 7l224 668h-367z" />
<glyph unicode="8" horiz-adv-x="526" d="M55 193q0 65 37 118t96 76q-44 21 -70.5 63t-26.5 92q0 71 50.5 121.5t121.5 50.5t121.5 -50.5t50.5 -121.5q0 -50 -26.5 -92t-70.5 -63q59 -23 96 -76t37 -118q0 -86 -61 -147t-147 -61t-147 61t-61 147zM85 193q0 -73 52.5 -125.5t125.5 -52.5t125.5 52.5t52.5 125.5 t-52.5 125.5t-125.5 52.5t-125.5 -52.5t-52.5 -125.5zM121 542q0 -58 41.5 -100t100.5 -42t100.5 42t41.5 100t-41.5 100t-100.5 42t-100.5 -42t-41.5 -100z" />
<glyph unicode="9" horiz-adv-x="526" d="M50 507q0 86 61 147t147 61t147 -61t61 -147v-216q0 -46 -7 -86.5t-25.5 -79.5t-47 -67t-74 -45t-103.5 -17q-17 0 -45 2v30q28 -2 44 -2q228 0 228 265v109q-28 -46 -75 -73.5t-103 -27.5q-86 0 -147 61t-61 147zM80 507q0 -73 52 -125.5t126 -52.5t126 52.5t52 125.5 t-52 125.5t-126 52.5t-126 -52.5t-52 -125.5z" />
<glyph unicode=":" horiz-adv-x="184" d="M62 0v60h60v-60h-60zM62 476v60h60v-60h-60z" />
<glyph unicode=";" horiz-adv-x="184" d="M62 0v60h60v-85q0 -71 -47 -88l-10 28q27 9 27 60v25h-30zM62 476v60h60v-60h-60z" />
<glyph unicode="&#x3c;" horiz-adv-x="550" d="M50 288l440 170l10 -28l-367 -142l367 -142l-10 -28z" />
<glyph unicode="=" horiz-adv-x="460" d="M50 247v30h360v-30h-360zM50 341v30h360v-30h-360z" />
<glyph unicode="&#x3e;" horiz-adv-x="550" d="M50 146l367 142l-367 142l10 28l440 -170l-440 -170z" />
<glyph unicode="?" horiz-adv-x="502" d="M51 599q59 116 191 116q83 0 146.5 -50t63.5 -137q0 -63 -30 -101.5t-88 -70.5q-41 -23 -61 -48t-20 -63v-81h-30v81q0 84 97 137q49 27 75.5 61t26.5 85q0 73 -54.5 115t-125.5 42q-116 0 -165 -100zM208 0v60h60v-60h-60z" />
<glyph unicode="@" horiz-adv-x="840" d="M55 350q0 151 107 258t258 107t258 -107t107 -258q0 -75 -43 -132.5t-119 -57.5q-53 0 -84 44q-52 -48 -130 -48q-59 0 -106.5 40t-47.5 107q0 66 47 106t107 40q68 0 119 -41v1q0 55 -28.5 87t-72.5 32q-66 0 -112 -46l-22 22q54 54 134 54q57 0 94 -40.5t37 -108.5 v-171q0 -16 20 -32t45 -16q62 0 97 48.5t35 111.5q0 139 -98 237t-237 98t-237 -98t-98 -237t98 -237t237 -98q74 0 155 38l12 -28q-82 -40 -167 -40q-151 0 -258 107t-107 258zM285 303q0 -52 38 -84.5t86 -32.5q75 0 119 51v127q-49 55 -119 55q-48 0 -86 -32t-38 -84z " />
<glyph unicode="A" horiz-adv-x="634" d="M49 5l268 712l268 -712l-28 -10l-73 194h-334l-73 -194zM161 219h311l-155 413z" />
<glyph unicode="B" horiz-adv-x="526" d="M70 2v698q39 3 77 3q134 0 201.5 -47.5t67.5 -125.5q0 -54 -34 -95.5t-101 -61.5q93 -19 144 -66.5t51 -114.5q0 -89 -87.5 -141t-241.5 -52q-38 0 -77 3zM100 30q17 -1 47 -1q140 0 219.5 43.5t79.5 119.5q0 77 -80 120.5t-220 43.5h-46v-326zM100 386h57 q114 0 171.5 40t57.5 104q0 65 -60 104t-179 39q-30 0 -47 -1v-286z" />
<glyph unicode="C" horiz-adv-x="518" d="M55 350q0 68 21.5 130.5t62.5 113t107.5 80.5t148.5 30q40 0 73 -3l-2 -30q-33 3 -71 3q-75 0 -135.5 -27.5t-97.5 -74t-57 -103.5t-20 -119t20 -119t57 -103t97 -73.5t135 -27.5q39 0 72 3l2 -30q-33 -3 -74 -3q-82 0 -148 30t-107 80.5t-62.5 112.5t-21.5 130z" />
<glyph unicode="D" horiz-adv-x="551" d="M70 0v700q52 4 87 4q108 0 187 -52t115.5 -131t36.5 -171q0 -68 -21.5 -130t-62.5 -112.5t-107 -80.5t-148 -30q-48 0 -87 3zM100 28q17 -1 57 -1q75 0 135 27.5t97 73.5t57 103t20 119t-20 119t-57 103.5t-97.5 74t-134.5 27.5q-25 0 -57 -2v-644z" />
<glyph unicode="E" horiz-adv-x="521" d="M70 0v700h396v-30h-366v-264h300v-30h-300v-346h366v-30h-396z" />
<glyph unicode="F" horiz-adv-x="521" d="M70 0v700h396v-30h-366v-264h300v-30h-300v-376h-30z" />
<glyph unicode="G" horiz-adv-x="547" d="M55 350q0 92 36.5 171t115.5 131t187 52q35 0 87 -4v-31q-42 5 -87 5q-74 0 -134.5 -27.5t-97.5 -74t-57 -103.5t-20 -119t20 -119t57 -103t97 -73.5t135 -27.5q40 0 57 1v280h30v-308q-39 -3 -87 -3q-82 0 -148 30t-107 80.5t-62.5 112.5t-21.5 130z" />
<glyph unicode="H" horiz-adv-x="546" d="M70 0v700h30v-294h346v294h30v-700h-30v376h-346v-376h-30z" />
<glyph unicode="I" d="M70 0v700h30v-700h-30z" />
<glyph unicode="J" horiz-adv-x="459" d="M45 58l21 23q66 -61 127 -61q60 0 102.5 38.5t57.5 95.5q10 36 10 78v468h30v-477q0 -99 -56.5 -166t-143.5 -67q-80 0 -148 68z" />
<glyph unicode="K" horiz-adv-x="576" d="M70 0v700h30v-366l405 377l20 -22l-347 -322l348 -357l-22 -20l-347 356l-57 -53v-293h-30z" />
<glyph unicode="L" horiz-adv-x="493" d="M70 0v700h30v-670h338v-30h-368z" />
<glyph unicode="M" horiz-adv-x="656" d="M70 0v724l258 -483l258 483v-724h-30v605l-228 -428l-228 428v-605h-30z" />
<glyph unicode="N" horiz-adv-x="557" d="M70 0v729l387 -648v619h30v-729l-387 648v-619h-30z" />
<glyph unicode="O" horiz-adv-x="818" d="M50 350q0 148 105 253.5t254 105.5t254 -105.5t105 -253.5t-105 -253.5t-254 -105.5t-254 105.5t-105 253.5zM80 350q0 -136 96 -232.5t233 -96.5t233 96.5t96 232.5t-96 232.5t-233 96.5t-233 -96.5t-96 -232.5z" />
<glyph unicode="P" horiz-adv-x="536" d="M70 0v700q39 3 77 3q160 0 249.5 -69.5t89.5 -164.5t-89.5 -164t-249.5 -69q-13 0 -47 2v-238h-30zM100 268q32 -2 47 -2q146 0 227.5 60t81.5 143t-81.5 143.5t-227.5 60.5q-30 0 -47 -1v-404z" />
<glyph unicode="Q" horiz-adv-x="818" d="M50 350q0 148 105 253.5t254 105.5t254 -105.5t105 -253.5q0 -140 -95 -243l95 -94l-22 -22l-95 94q-104 -94 -242 -94q-149 0 -254 105.5t-105 253.5zM80 350q0 -136 96 -232.5t233 -96.5q128 0 221 85l-94 95l22 22l94 -95q86 96 86 222q0 136 -96 232.5t-233 96.5 t-233 -96.5t-96 -232.5z" />
<glyph unicode="R" horiz-adv-x="546" d="M70 0v700q39 3 77 3q160 0 249.5 -69.5t89.5 -164.5q0 -66 -45.5 -123t-130.5 -86l191 -251l-24 -18l-198 260q-57 -15 -132 -15q-13 0 -47 2v-238h-30zM100 268q32 -2 47 -2q146 0 227.5 60t81.5 143t-81.5 143.5t-227.5 60.5q-30 0 -47 -1v-404z" />
<glyph unicode="S" horiz-adv-x="516" d="M55 520q0 84 59.5 138t148.5 54q66 0 117.5 -30t76.5 -88l-28 -12q-22 49 -66 74.5t-100 25.5q-76 0 -127 -45.5t-51 -116.5q0 -30 15.5 -55.5t44.5 -44.5t55.5 -31.5t62.5 -24.5q40 -14 70 -28t61.5 -36t49 -52.5t17.5 -67.5q0 -84 -59.5 -138t-148.5 -54 q-66 0 -117.5 30t-76.5 88l28 12q22 -49 66 -74.5t100 -25.5q76 0 127 45.5t51 116.5q0 30 -15.5 55.5t-44.5 44.5t-55.5 31.5t-62.5 24.5q-40 14 -70 28t-61.5 36t-49 52.5t-17.5 67.5z" />
<glyph unicode="T" horiz-adv-x="566" d="M50 670v30h466v-30h-218v-670h-30v670h-218z" />
<glyph unicode="U" horiz-adv-x="558" d="M66 193v507h30v-507q0 -75 54 -124t129 -49t129 49t54 124v507h30v-507q0 -89 -62.5 -146t-150.5 -57t-150.5 57t-62.5 146z" />
<glyph unicode="V" horiz-adv-x="634" d="M49 695l28 9l240 -646l240 646l28 -9l-268 -723z" />
<glyph unicode="W" horiz-adv-x="773" d="M50 696l28 8l184 -630l109 374l-72 248l28 8l59 -204l60 204l28 -8l-73 -248l110 -374l184 630l28 -8l-212 -726l-125 427l-124 -427z" />
<glyph unicode="X" horiz-adv-x="558" d="M50 8l211 342l-211 342l26 16l203 -329l203 329l26 -16l-211 -342l211 -342l-26 -16l-203 329l-203 -329z" />
<glyph unicode="Y" horiz-adv-x="558" d="M50 692l26 16l203 -329l203 329l26 -16l-214 -347v-345h-30v345z" />
<glyph unicode="Z" horiz-adv-x="550" d="M55 0l388 670h-385v30h437l-388 -670h385v-30h-437z" />
<glyph unicode="[" horiz-adv-x="240" d="M70 -110v920h170v-30h-140v-860h140v-30h-170z" />
<glyph unicode="\" horiz-adv-x="455" d="M20 783l28 12l387 -829l-28 -12z" />
<glyph unicode="]" horiz-adv-x="240" d="M0 -80h140v860h-140v30h170v-920h-170v30z" />
<glyph unicode="^" horiz-adv-x="325" d="M50 555l113 145l112 -145l-24 -18l-88 113l-89 -113z" />
<glyph unicode="_" horiz-adv-x="511" d="M0 0v30h511v-30h-511z" />
<glyph unicode="`" horiz-adv-x="289" d="M60 717l18 24l151 -109l-18 -24z" />
<glyph unicode="a" horiz-adv-x="532" d="M55 187q0 87 62 141t150 54q103 0 175 -69v28q0 91 -45.5 133t-104.5 42q-96 0 -162 -64l-22 20q77 74 184 74q31 0 61 -10.5t57.5 -33t44.5 -64t17 -97.5v-341h-30v52q-68 -62 -175 -62q-87 0 -149.5 55t-62.5 142zM85 187q0 -74 53.5 -120.5t128.5 -46.5q113 0 175 76 v174q-67 82 -175 82q-76 0 -129 -45.5t-53 -119.5z" />
<glyph unicode="b" horiz-adv-x="532" d="M66 0v893h30v-351q34 2 46 2q161 0 250.5 -81t89.5 -193q0 -111 -89.5 -192t-249.5 -81q-38 0 -77 3zM96 28q17 -1 47 -1q146 0 227.5 72t81.5 171t-81.5 171.5t-228.5 72.5q-14 0 -46 -2v-484z" />
<glyph unicode="c" horiz-adv-x="503" d="M50 268q0 112 89.5 194t249.5 82q31 0 64 -3l-2 -30q-33 3 -62 3q-146 0 -227.5 -73.5t-81.5 -172.5t81.5 -172t227.5 -73q29 0 62 3l2 -30q-33 -3 -64 -3q-160 0 -249.5 81.5t-89.5 193.5z" />
<glyph unicode="d" horiz-adv-x="532" d="M50 270q0 112 89.5 193t250.5 81q12 0 46 -2v351h30v-893q-39 -3 -77 -3q-160 0 -249.5 81t-89.5 192zM80 270q0 -99 81.5 -171t227.5 -72q30 0 47 1v484q-32 2 -46 2q-147 0 -228.5 -72.5t-81.5 -171.5z" />
<glyph unicode="e" horiz-adv-x="562" d="M50 270q0 74 24 130.5t61.5 86.5t76.5 44.5t76 14.5q104 0 164 -71t60 -181h-431q-1 -8 -1 -24q0 -98 81 -170.5t230 -72.5q29 0 61 3v-30q-44 -4 -64 -4q-158 0 -248 81t-90 193zM84 324h396q0 71 -52 131.5t-140 60.5q-70 0 -129.5 -50t-74.5 -142z" />
<glyph unicode="f" horiz-adv-x="259" d="M21 506v30h45v115q0 92 52.5 147.5t128.5 55.5q48 0 80.5 -15t68.5 -48l-20 -22q-33 30 -60.5 42.5t-68.5 12.5q-64 0 -107.5 -47t-43.5 -126v-115h158v-30h-158v-799h-30v799h-45z" />
<glyph unicode="g" horiz-adv-x="532" d="M50 270q0 111 89.5 192t249.5 81q38 0 77 -3v-600q0 -94 -55.5 -163.5t-143.5 -69.5q-78 0 -148 68l20 22q62 -60 128 -60q74 0 121.5 60.5t47.5 142.5v59q-26 -3 -46 -3q-161 0 -250.5 81t-89.5 193zM80 270q0 -99 81.5 -171.5t228.5 -72.5q14 0 46 2v484q-17 1 -47 1 q-146 0 -227.5 -72t-81.5 -171z" />
<glyph unicode="h" horiz-adv-x="543" d="M66 0v893h30v-400q73 53 167 53q70 0 126.5 -34t80.5 -100q13 -33 13 -70v-342h-30v340q0 82 -57.5 129t-133.5 47q-97 0 -166 -61v-455h-30z" />
<glyph unicode="i" d="M60 650v50h50v-50h-50zM70 0v536h30v-536h-30z" />
<glyph unicode="j" d="M-122 -232l26 14q26 -45 72 -45q40 0 67 34.5t27 94.5v670h30v-670q0 -73 -35.5 -116t-88.5 -43q-64 0 -98 61zM60 651v49h50v-49h-50z" />
<glyph unicode="k" horiz-adv-x="570" d="M66 0v893h30v-645l406 299l18 -24l-334 -247l334 -263l-18 -24l-341 269l-65 -48v-210h-30z" />
<glyph unicode="l" horiz-adv-x="162" d="M66 0v893h30v-893h-30z" />
<glyph unicode="m" horiz-adv-x="832" d="M66 0v536h30v-44q65 54 153 54q62 0 106.5 -32t63.5 -90q19 58 63 90t105 32q80 0 132.5 -55.5t52.5 -149.5v-341h-30v341q0 14 -3 33t-13.5 45t-26.5 47t-45.5 35.5t-66.5 14.5q-75 0 -114 -53.5t-39 -118.5v-344h-30v344q0 64 -40 118t-115 54q-88 0 -153 -62v-454h-30 z" />
<glyph unicode="n" horiz-adv-x="544" d="M66 0v536h30v-44q73 54 169 54q70 0 126.5 -35t80.5 -99q12 -32 12 -70v-342h-30v342q0 80 -57.5 127t-131.5 47q-102 0 -169 -61v-455h-30z" />
<glyph unicode="o" horiz-adv-x="656" d="M50 268q0 115 81.5 196.5t196.5 81.5t196.5 -81.5t81.5 -196.5t-81.5 -196.5t-196.5 -81.5t-196.5 81.5t-81.5 196.5zM80 268q0 -103 72.5 -175.5t175.5 -72.5t175.5 72.5t72.5 175.5t-72.5 175.5t-175.5 72.5t-175.5 -72.5t-72.5 -175.5z" />
<glyph unicode="p" horiz-adv-x="532" d="M66 -293v833q39 3 77 3q160 0 249.5 -81t89.5 -192q0 -112 -89.5 -193t-250.5 -81q-12 0 -46 2v-291h-30zM96 28q32 -2 46 -2q147 0 228.5 72.5t81.5 171.5t-81.5 171t-227.5 72q-30 0 -47 -1v-484z" />
<glyph unicode="q" horiz-adv-x="532" d="M50 270q0 111 89.5 192t249.5 81q38 0 77 -3v-833h-30v291q-34 -2 -46 -2q-161 0 -250.5 81t-89.5 193zM80 270q0 -99 81.5 -171.5t228.5 -72.5q14 0 46 2v484q-17 1 -47 1q-146 0 -227.5 -72t-81.5 -171z" />
<glyph unicode="r" horiz-adv-x="300" d="M66 0v536h30v-44q73 54 169 54v-30q-102 0 -169 -61v-455h-30z" />
<glyph unicode="s" horiz-adv-x="464" d="M50 388q0 66 62 110.5t163 44.5q59 0 110 -21l-12 -28q-49 19 -98 19q-88 0 -141.5 -35.5t-53.5 -89.5q0 -79 154 -105q86 -14 133 -49t47 -86q0 -66 -62 -110.5t-163 -44.5q-59 0 -110 21l12 28q49 -19 98 -19q88 0 141.5 35.5t53.5 89.5q0 79 -154 105q-86 14 -133 49 t-47 86z" />
<glyph unicode="t" horiz-adv-x="296" d="M21 506v30h45v174h30v-174h158v-30h-158v-318q0 -78 42.5 -118.5t110.5 -40.5q14 0 23 1l4 -30q-9 -1 -27 -1q-81 0 -132 48t-51 141v318h-45z" />
<glyph unicode="u" horiz-adv-x="538" d="M60 193v343h30v-343q0 -76 52 -124.5t127 -48.5t127 48.5t52 124.5v343h30v-343q0 -89 -61 -146t-148 -57t-148 57t-61 146z" />
<glyph unicode="v" horiz-adv-x="526" d="M50 531l28 10l185 -479l185 479l28 -10l-213 -551z" />
<glyph unicode="w" horiz-adv-x="778" d="M50 531l28 10l185 -479l110 285l-71 184l28 10l59 -153l59 153l28 -10l-71 -184l110 -285l185 479l28 -10l-213 -551l-126 326l-126 -326z" />
<glyph unicode="x" horiz-adv-x="554" d="M50 9l208 259l-208 259l24 18l203 -253l203 253l24 -18l-208 -259l208 -259l-24 -18l-203 252l-203 -252z" />
<glyph unicode="y" horiz-adv-x="542" d="M60 186v350h30v-352q0 -78 56 -126t131 -48q51 0 88.5 19t80.5 60v447h30v-596q0 -94 -55.5 -163.5t-143.5 -69.5q-78 0 -148 68l20 22q62 -60 128 -60q74 0 121.5 60.5t47.5 142.5v107q-76 -67 -168 -67q-82 0 -150 55.5t-68 150.5z" />
<glyph unicode="z" horiz-adv-x="534" d="M46 0l381 506h-377v30h438l-381 -506h377v-30h-438z" />
<glyph unicode="{" horiz-adv-x="250" d="M47 338v24q27 6 55 29.5t28 50.5q0 36 -15 119t-15 124q0 50 39.5 87.5t110.5 37.5v-30q-57 0 -88.5 -28.5t-31.5 -66.5q0 -32 15 -116t15 -127q0 -56 -64 -92q64 -36 64 -92q0 -44 -15 -128t-15 -115q0 -38 31.5 -66.5t88.5 -28.5v-30q-71 0 -110.5 37.5t-39.5 87.5 q0 41 15 124t15 119q0 27 -28 50.5t-55 29.5z" />
<glyph unicode="|" horiz-adv-x="184" d="M77 -120v1013h30v-1013h-30z" />
<glyph unicode="}" horiz-adv-x="250" d="M0 -80q57 0 88.5 28.5t31.5 66.5q0 31 -15 115t-15 128q0 56 64 92q-64 36 -64 92q0 43 15 127t15 116q0 38 -31.5 66.5t-88.5 28.5v30q71 0 110.5 -37.5t39.5 -87.5q0 -41 -15 -124t-15 -119q0 -27 28 -50.5t55 -29.5v-24q-27 -6 -55 -29.5t-28 -50.5q0 -36 15 -119 t15 -124q0 -50 -39.5 -87.5t-110.5 -37.5v30z" />
<glyph unicode="~" horiz-adv-x="511" d="M50 301q48 61 111 61q49 0 103 -40q44 -35 87 -35q47 0 86 49l24 -18q-48 -61 -110 -61q-50 0 -105 41q-47 34 -85 34q-48 0 -87 -49z" />
<glyph unicode="&#xa1;" horiz-adv-x="184" d="M62 476v60h60v-60h-60zM77 -164v536h30v-536h-30z" />
<glyph unicode="&#xa2;" horiz-adv-x="512" d="M50 268q0 92 62 167t176 99v92h30v-87q37 5 71 5q31 0 64 -3l-2 -30q-33 3 -62 3q-146 0 -227.5 -73.5t-81.5 -172.5t81.5 -172t227.5 -73q29 0 62 3l2 -30q-33 -3 -64 -3q-34 0 -71 5v-90h-30v95q-114 24 -176 98.5t-62 166.5z" />
<glyph unicode="&#xa3;" horiz-adv-x="493" d="M20 345v30h65q-12 55 -12 101q0 100 69.5 162t201.5 62v-30q-117 0 -179 -54t-62 -140q0 -44 12 -101h105v-30h-98q2 -7 8.5 -33t9 -37.5t6.5 -32t5.5 -37t1.5 -33.5q0 -24 -9.5 -54.5t-24.5 -51.5q11 5 29 5q52 0 105 -25q52 -23 93 -23q57 0 92 34l20 -22 q-45 -42 -112 -42q-47 0 -105 25q-53 23 -93 23q-15 0 -35.5 -9t-41 -19.5t-33.5 -12.5l-5 30q30 7 60 50t30 92q0 45 -32 173h-71z" />
<glyph unicode="&#xa5;" horiz-adv-x="558" d="M50 692l26 16l203 -329l203 329l26 -16l-214 -347v-55h145v-30h-145v-58h145v-30h-145v-172h-30v172h-145v30h145v58h-145v30h145v55z" />
<glyph unicode="&#xa6;" horiz-adv-x="230" d="M100 -120v440h30v-440h-30zM100 453v440h30v-440h-30z" />
<glyph unicode="&#xa7;" horiz-adv-x="513" d="M60 319q0 42 30 76t80 53q-82 31 -82 105q0 61 58 104t157 43q39 0 79 -8l-4 -30q-40 8 -75 8q-85 0 -135 -34.5t-50 -82.5q0 -73 120 -90l39 -5q81 -11 128.5 -59.5t47.5 -104.5q0 -43 -30 -76.5t-80 -52.5q82 -31 82 -104q0 -61 -58 -104t-157 -43q-39 0 -79 8l4 30 q40 -8 75 -8q85 0 135 34.5t50 82.5q0 34 -32 58t-89 32l-41 5q-80 10 -126.5 58.5t-46.5 104.5zM90 319q0 -54 53 -95t130 -41q65 0 107.5 33.5t42.5 77.5q0 54 -53 95t-129 41q-65 0 -108 -33.5t-43 -77.5z" />
<glyph unicode="&#xa8;" horiz-adv-x="325" d="M70 650v50h50v-50h-50zM205 650v50h50v-50h-50z" />
<glyph unicode="&#xa9;" horiz-adv-x="840" d="M55 350q0 151 107 258t258 107t258 -107t107 -258t-107 -258t-258 -107t-258 107t-107 258zM85 350q0 -139 98 -237t237 -98t237 98t98 237t-98 237t-237 98t-237 -98t-98 -237zM241 350q0 81 64 139.5t180 58.5q31 0 46 -2l-4 -30q-15 2 -42 2q-101 0 -157.5 -50 t-56.5 -118t56 -117.5t157 -49.5q27 0 43 2l4 -30q-16 -2 -47 -2q-115 0 -179 58.5t-64 138.5z" />
<glyph unicode="&#xab;" horiz-adv-x="417" d="M50 270l169 132l18 -24l-137 -108l137 -107l-18 -24zM180 270l169 132l18 -24l-137 -108l137 -107l-18 -24z" />
<glyph unicode="&#xad;" horiz-adv-x="360" d="M50 294v30h260v-30h-260z" />
<glyph unicode="&#xae;" horiz-adv-x="500" d="M60 525q0 79 55.5 134.5t134.5 55.5t134.5 -55.5t55.5 -134.5t-55.5 -134.5t-134.5 -55.5t-134.5 55.5t-55.5 134.5zM90 525q0 -67 46.5 -113.5t113.5 -46.5t113.5 46.5t46.5 113.5t-46.5 113.5t-113.5 46.5t-113.5 -46.5t-46.5 -113.5zM193 435v201h29q45 0 70 -20.5 t25 -49.5q0 -41 -43 -59l48 -63l-24 -18l-56 73q-6 -1 -19 -1v-63h-30zM223 528q30 0 47 11.5t17 26.5q0 16 -17 28t-47 12v-78z" />
<glyph unicode="&#xaf;" horiz-adv-x="400" d="M70 660v30h260v-30h-260z" />
<glyph unicode="&#xb0;" horiz-adv-x="274" d="M55 536q0 34 24 58t58 24t58 -24t24 -58t-24 -58t-58 -24t-58 24t-24 58zM85 536q0 -22 15 -37t37 -15t37 15t15 37t-15 37t-37 15t-37 -15t-15 -37z" />
<glyph unicode="&#xb1;" horiz-adv-x="480" d="M60 100v30h360v-30h-360zM60 324v30h165v164h30v-164h165v-30h-165v-164h-30v164h-165z" />
<glyph unicode="&#xb2;" horiz-adv-x="318" d="M50 481l139 160q44 50 44 81q0 29 -21.5 46t-49.5 17q-48 0 -67 -40l-26 14q29 56 93 56q40 0 70.5 -25t30.5 -68q0 -42 -52 -101l-96 -110h148v-30h-213z" />
<glyph unicode="&#xb3;" horiz-adv-x="291" d="M52 482l6 30q11 -2 29 -2q50 0 87 20t37 55q0 20 -17 37.5t-41 26.5q-23 7 -90 11l85 121h-88v30h147l-88 -124q28 -4 44 -10q34 -12 56 -37t22 -55q0 -49 -46 -77t-108 -28q-24 0 -35 2z" />
<glyph unicode="&#xb4;" horiz-adv-x="309" d="M70 632l151 109l18 -24l-151 -109z" />
<glyph unicode="&#xb6;" horiz-adv-x="416" d="M50 564q0 56 40 96t96 40h220v-30h-50v-670h-30v670h-80v-670h-30v428h-30q-56 0 -96 40t-40 96zM80 564q0 -44 31 -75t75 -31h30v212h-30q-44 0 -75 -31t-31 -75z" />
<glyph unicode="&#xb7;" horiz-adv-x="160" d="M50 278v60h60v-60h-60z" />
<glyph unicode="&#xb8;" horiz-adv-x="270" d="M107 -109l10 28q9 -4 23 -4q30 0 30 20q0 10 -32 10h-13l15 58l30 -8l-6 -19q36 -7 36 -41q0 -25 -18 -37.5t-43 -12.5q-17 0 -32 6z" />
<glyph unicode="&#xb9;" horiz-adv-x="223" d="M50 686l113 143v-348h-30v260l-59 -73z" />
<glyph unicode="&#xbb;" horiz-adv-x="417" d="M50 163l137 107l-137 108l18 24l169 -132l-169 -131zM180 163l137 107l-137 108l18 24l169 -132l-169 -131z" />
<glyph unicode="&#xbf;" horiz-adv-x="425" d="M50 8q0 112 116 172q41 21 62 46t21 65v81h30v-81q0 -88 -96 -137q-35 -20 -52.5 -33.5t-34 -43t-16.5 -69.5q0 -71 54 -114t125 -43q116 0 166 99l27 -12q-58 -117 -192 -117q-82 0 -146 49.5t-64 137.5zM234 476v60h60v-60h-60z" />
<glyph unicode="&#xc0;" horiz-adv-x="634" d="M49 5l268 712l268 -712l-28 -10l-73 194h-334l-73 -194zM161 219h311l-155 413zM226 868l18 24l151 -109l-18 -24z" />
<glyph unicode="&#xc1;" horiz-adv-x="634" d="M49 5l268 712l268 -712l-28 -10l-73 194h-334l-73 -194zM161 219h311l-155 413zM241 783l151 109l18 -24l-151 -109z" />
<glyph unicode="&#xc2;" horiz-adv-x="634" d="M49 5l268 712l268 -712l-28 -10l-73 194h-334l-73 -194zM161 219h311l-155 413zM221 777l89 115l90 -115l-24 -18l-66 83l-65 -83z" />
<glyph unicode="&#xc3;" horiz-adv-x="634" d="M49 5l268 712l268 -712l-28 -10l-73 194h-334l-73 -194zM161 219h311l-155 413zM192 812q25 47 70 47q29 0 57 -22q20 -15 38 -15q30 0 47 35l24 -18q-26 -47 -71 -47q-27 0 -56 21q-21 16 -39 16q-30 0 -46 -35z" />
<glyph unicode="&#xc4;" horiz-adv-x="634" d="M49 5l268 712l268 -712l-28 -10l-73 194h-334l-73 -194zM161 219h311l-155 413zM218 801v50h50v-50h-50zM353 801v50h50v-50h-50z" />
<glyph unicode="&#xc5;" horiz-adv-x="634" d="M49 5l268 712l268 -712l-28 -10l-73 194h-334l-73 -194zM161 219h311l-155 413zM243 826q0 28 19.5 47.5t47.5 19.5t47.5 -19.5t19.5 -47.5t-19.5 -47.5t-47.5 -19.5t-47.5 19.5t-19.5 47.5zM273 826q0 -15 11 -26t26 -11t26 11t11 26t-11 26t-26 11t-26 -11t-11 -26z " />
<glyph unicode="&#xc6;" horiz-adv-x="748" d="M50 7l347 693h296v-30h-266v-264h200v-30h-200v-346h266v-30h-296v168h-234l-87 -175zM178 198h219v437z" />
<glyph unicode="&#xc7;" horiz-adv-x="518" d="M55 350q0 68 21.5 130.5t62.5 113t107.5 80.5t148.5 30q40 0 73 -3l-2 -30q-33 3 -71 3q-75 0 -135.5 -27.5t-97.5 -74t-57 -103.5t-20 -119t20 -119t57 -103t97 -73.5t135 -27.5q39 0 72 3l2 -30q-33 -3 -74 -3q-22 0 -43 3l-6 -19q36 -7 36 -41q0 -25 -18 -37.5 t-43 -12.5q-17 0 -32 6l10 28q9 -4 23 -4q30 0 30 20q0 10 -32 10h-13l14 54q-85 16 -146.5 69.5t-90 124.5t-28.5 152z" />
<glyph unicode="&#xc8;" horiz-adv-x="521" d="M70 0v700h396v-30h-366v-264h300v-30h-300v-346h366v-30h-396zM184 868l18 24l151 -109l-18 -24z" />
<glyph unicode="&#xc9;" horiz-adv-x="521" d="M70 0v700h396v-30h-366v-264h300v-30h-300v-346h366v-30h-396zM184 783l151 109l18 -24l-151 -109z" />
<glyph unicode="&#xca;" horiz-adv-x="521" d="M70 0v700h396v-30h-366v-264h300v-30h-300v-346h366v-30h-396zM179 777l89 115l90 -115l-24 -18l-66 83l-65 -83z" />
<glyph unicode="&#xcb;" horiz-adv-x="521" d="M70 0v700h396v-30h-366v-264h300v-30h-300v-346h366v-30h-396zM176 801v50h50v-50h-50zM311 801v50h50v-50h-50z" />
<glyph unicode="&#xcc;" d="M1 868l18 24l151 -109l-18 -24zM70 0v700h30v-700h-30z" />
<glyph unicode="&#xcd;" d="M16 783l151 109l18 -24l-151 -109zM70 0v700h30v-700h-30z" />
<glyph unicode="&#xce;" d="M-4 777l89 115l90 -115l-24 -18l-66 83l-65 -83zM70 0v700h30v-700h-30z" />
<glyph unicode="&#xcf;" d="M-7 801v50h50v-50h-50zM70 0v700h30v-700h-30zM128 801v50h50v-50h-50z" />
<glyph unicode="&#xd1;" horiz-adv-x="557" d="M70 0v729l387 -648v619h30v-729l-387 648v-619h-30zM160 812q25 47 70 47q29 0 57 -22q19 -15 38 -15q30 0 47 35l24 -18q-26 -47 -71 -47q-27 0 -56 21q-21 16 -39 16q-30 0 -46 -35z" />
<glyph unicode="&#xd2;" horiz-adv-x="818" d="M50 350q0 148 105 253.5t254 105.5t254 -105.5t105 -253.5t-105 -253.5t-254 -105.5t-254 105.5t-105 253.5zM80 350q0 -136 96 -232.5t233 -96.5t233 96.5t96 232.5t-96 232.5t-233 96.5t-233 -96.5t-96 -232.5zM325 868l18 24l151 -109l-18 -24z" />
<glyph unicode="&#xd3;" horiz-adv-x="818" d="M50 350q0 148 105 253.5t254 105.5t254 -105.5t105 -253.5t-105 -253.5t-254 -105.5t-254 105.5t-105 253.5zM80 350q0 -136 96 -232.5t233 -96.5t233 96.5t96 232.5t-96 232.5t-233 96.5t-233 -96.5t-96 -232.5zM325 783l151 109l18 -24l-151 -109z" />
<glyph unicode="&#xd4;" horiz-adv-x="818" d="M50 350q0 148 105 253.5t254 105.5t254 -105.5t105 -253.5t-105 -253.5t-254 -105.5t-254 105.5t-105 253.5zM80 350q0 -136 96 -232.5t233 -96.5t233 96.5t96 232.5t-96 232.5t-233 96.5t-233 -96.5t-96 -232.5zM320 777l89 115l90 -115l-24 -18l-66 83l-65 -83z" />
<glyph unicode="&#xd5;" horiz-adv-x="818" d="M50 350q0 148 105 253.5t254 105.5t254 -105.5t105 -253.5t-105 -253.5t-254 -105.5t-254 105.5t-105 253.5zM80 350q0 -136 96 -232.5t233 -96.5t233 96.5t96 232.5t-96 232.5t-233 96.5t-233 -96.5t-96 -232.5zM291 812q25 47 70 47q29 0 57 -22q19 -15 38 -15 q30 0 47 35l24 -18q-26 -47 -71 -47q-28 0 -56 21q-21 16 -39 16q-30 0 -46 -35z" />
<glyph unicode="&#xd6;" horiz-adv-x="818" d="M50 350q0 148 105 253.5t254 105.5t254 -105.5t105 -253.5t-105 -253.5t-254 -105.5t-254 105.5t-105 253.5zM80 350q0 -136 96 -232.5t233 -96.5t233 96.5t96 232.5t-96 232.5t-233 96.5t-233 -96.5t-96 -232.5zM317 801v50h50v-50h-50zM452 801v50h50v-50h-50z" />
<glyph unicode="&#xd7;" horiz-adv-x="480" d="M60 151l158 158l-158 158l22 22l158 -158l158 158l22 -22l-158 -158l158 -158l-22 -22l-158 158l-158 -158z" />
<glyph unicode="&#xd8;" horiz-adv-x="818" d="M50 13l94 94q-94 104 -94 243q0 148 105 253.5t254 105.5q139 0 242 -95l95 95l22 -22l-95 -95q95 -103 95 -242q0 -148 -105 -253.5t-254 -105.5q-139 0 -243 94l-94 -94zM80 350q0 -127 85 -222l465 465q-94 86 -221 86q-137 0 -233 -96.5t-96 -232.5zM187 106 q95 -85 222 -85q137 0 233 96.5t96 232.5q0 127 -86 221z" />
<glyph unicode="&#xd9;" horiz-adv-x="558" d="M66 193v507h30v-507q0 -75 54 -124t129 -49t129 49t54 124v507h30v-507q0 -89 -62.5 -146t-150.5 -57t-150.5 57t-62.5 146zM195 868l18 24l151 -109l-18 -24z" />
<glyph unicode="&#xda;" horiz-adv-x="558" d="M66 193v507h30v-507q0 -75 54 -124t129 -49t129 49t54 124v507h30v-507q0 -89 -62.5 -146t-150.5 -57t-150.5 57t-62.5 146zM195 783l151 109l18 -24l-151 -109z" />
<glyph unicode="&#xdb;" horiz-adv-x="558" d="M66 193v507h30v-507q0 -75 54 -124t129 -49t129 49t54 124v507h30v-507q0 -89 -62.5 -146t-150.5 -57t-150.5 57t-62.5 146zM190 777l89 115l90 -115l-24 -18l-66 83l-65 -83z" />
<glyph unicode="&#xdc;" horiz-adv-x="558" d="M66 193v507h30v-507q0 -75 54 -124t129 -49t129 49t54 124v507h30v-507q0 -89 -62.5 -146t-150.5 -57t-150.5 57t-62.5 146zM187 801v50h50v-50h-50zM322 801v50h50v-50h-50z" />
<glyph unicode="&#xdd;" horiz-adv-x="558" d="M50 692l26 16l203 -329l203 329l26 -16l-214 -347v-345h-30v345zM195 783l151 109l18 -24l-151 -109z" />
<glyph unicode="&#xde;" horiz-adv-x="467" d="M70 0v700h30v-136q28 2 44 2q126 0 199.5 -63.5t73.5 -151.5q0 -89 -73 -152t-200 -63q-30 0 -44 2v-138h-30zM100 168q16 -2 44 -2q113 0 178 54.5t65 130.5t-65.5 130.5t-177.5 54.5q-20 0 -44 -3v-365z" />
<glyph unicode="&#xdf;" horiz-adv-x="541" d="M66 0v611q0 64 46.5 106.5t106.5 42.5v-30q-48 0 -85.5 -34t-37.5 -85v-75h350l-161 -240q81 -14 141 -74.5t60 -137.5q0 -105 -80 -177.5t-216 -72.5v30q122 0 194 64t72 156q0 74 -68 129t-156 55l158 238h-294v-506h-30z" />
<glyph unicode="&#xe0;" horiz-adv-x="532" d="M55 187q0 87 62 141t150 54q103 0 175 -69v28q0 91 -45.5 133t-104.5 42q-96 0 -162 -64l-22 20q77 74 184 74q31 0 61 -10.5t57.5 -33t44.5 -64t17 -97.5v-341h-30v52q-68 -62 -175 -62q-87 0 -149.5 55t-62.5 142zM85 187q0 -74 53.5 -120.5t128.5 -46.5q113 0 175 76 v174q-67 82 -175 82q-76 0 -129 -45.5t-53 -119.5zM200 717l18 24l151 -109l-18 -24z" />
<glyph unicode="&#xe1;" horiz-adv-x="532" d="M55 187q0 87 62 141t150 54q103 0 175 -69v28q0 91 -45.5 133t-104.5 42q-96 0 -162 -64l-22 20q77 74 184 74q31 0 61 -10.5t57.5 -33t44.5 -64t17 -97.5v-341h-30v52q-68 -62 -175 -62q-87 0 -149.5 55t-62.5 142zM85 187q0 -74 53.5 -120.5t128.5 -46.5q113 0 175 76 v174q-67 82 -175 82q-76 0 -129 -45.5t-53 -119.5zM214 632l151 109l18 -24l-151 -109z" />
<glyph unicode="&#xe2;" horiz-adv-x="532" d="M55 187q0 87 62 141t150 54q103 0 175 -69v28q0 91 -45.5 133t-104.5 42q-96 0 -162 -64l-22 20q77 74 184 74q31 0 61 -10.5t57.5 -33t44.5 -64t17 -97.5v-341h-30v52q-68 -62 -175 -62q-87 0 -149.5 55t-62.5 142zM85 187q0 -74 53.5 -120.5t128.5 -46.5q113 0 175 76 v174q-67 82 -175 82q-76 0 -129 -45.5t-53 -119.5zM202 626l89 115l90 -115l-24 -18l-66 83l-65 -83z" />
<glyph unicode="&#xe3;" horiz-adv-x="532" d="M55 187q0 87 62 141t150 54q103 0 175 -69v28q0 91 -45.5 133t-104.5 42q-96 0 -162 -64l-22 20q77 74 184 74q31 0 61 -10.5t57.5 -33t44.5 -64t17 -97.5v-341h-30v52q-68 -62 -175 -62q-87 0 -149.5 55t-62.5 142zM85 187q0 -74 53.5 -120.5t128.5 -46.5q113 0 175 76 v174q-67 82 -175 82q-76 0 -129 -45.5t-53 -119.5zM166 661q25 47 70 47q29 0 57 -22q19 -15 38 -15q30 0 47 35l24 -18q-26 -47 -71 -47q-27 0 -56 21q-21 16 -39 16q-30 0 -46 -35z" />
<glyph unicode="&#xe4;" horiz-adv-x="532" d="M55 187q0 87 62 141t150 54q103 0 175 -69v28q0 91 -45.5 133t-104.5 42q-96 0 -162 -64l-22 20q77 74 184 74q31 0 61 -10.5t57.5 -33t44.5 -64t17 -97.5v-341h-30v52q-68 -62 -175 -62q-87 0 -149.5 55t-62.5 142zM85 187q0 -74 53.5 -120.5t128.5 -46.5q113 0 175 76 v174q-67 82 -175 82q-76 0 -129 -45.5t-53 -119.5zM194 650v50h50v-50h-50zM329 650v50h50v-50h-50z" />
<glyph unicode="&#xe5;" horiz-adv-x="532" d="M55 187q0 87 62 141t150 54q103 0 175 -69v28q0 91 -45.5 133t-104.5 42q-96 0 -162 -64l-22 20q77 74 184 74q31 0 61 -10.5t57.5 -33t44.5 -64t17 -97.5v-341h-30v52q-68 -62 -175 -62q-87 0 -149.5 55t-62.5 142zM85 187q0 -74 53.5 -120.5t128.5 -46.5q113 0 175 76 v174q-67 82 -175 82q-76 0 -129 -45.5t-53 -119.5zM209 675q0 28 19.5 47.5t47.5 19.5t47.5 -19.5t19.5 -47.5t-19.5 -47.5t-47.5 -19.5t-47.5 19.5t-19.5 47.5zM239 675q0 -15 11 -26t26 -11t26 11t11 26t-11 26t-26 11t-26 -11t-11 -26z" />
<glyph unicode="&#xe6;" horiz-adv-x="934" d="M55 187q0 87 62 141t150 54q103 0 175 -69v27q0 92 -45.5 134t-104.5 42q-96 0 -162 -64l-22 20q77 74 184 74q62 0 111.5 -38t62.5 -108q32 74 93 110t121 36q102 0 153 -69.5t51 -182.5h-411q-1 -8 -1 -24v-9q3 -96 80 -165t221 -69q30 0 61 3v-30q-44 -4 -64 -4 q-110 0 -186 41.5t-112 109.5v-147h-30v52q-68 -62 -175 -62q-87 0 -149.5 55t-62.5 142zM85 187q0 -74 53.5 -120.5t128.5 -46.5q113 0 175 76v174q-67 82 -175 82q-76 0 -129 -45.5t-53 -119.5zM476 324h376q0 74 -43 133t-129 59q-70 0 -129.5 -50t-74.5 -142z" />
<glyph unicode="&#xe7;" horiz-adv-x="503" d="M50 268q0 112 89.5 194t250.5 82q30 0 63 -3l-2 -30q-33 3 -61 3q-146 0 -228 -73.5t-82 -172.5t81.5 -172t227.5 -73q29 0 62 3l2 -30q-33 -3 -64 -3q-34 0 -72 5l-5 -18q36 -7 36 -41q0 -25 -18 -37.5t-43 -12.5q-17 0 -32 6l10 28q9 -4 23 -4q30 0 30 20q0 10 -32 10 h-13l14 54q-113 25 -175 99.5t-62 165.5z" />
<glyph unicode="&#xe8;" horiz-adv-x="562" d="M50 270q0 74 24 130.5t61.5 86.5t76.5 44.5t76 14.5q104 0 164 -71t60 -181h-431q-1 -8 -1 -24q0 -98 81 -170.5t230 -72.5q29 0 61 3v-30q-44 -4 -64 -4q-158 0 -248 81t-90 193zM84 324h396q0 71 -52 131.5t-140 60.5q-70 0 -129.5 -50t-74.5 -142zM202 717l18 24 l151 -109l-18 -24z" />
<glyph unicode="&#xe9;" horiz-adv-x="562" d="M50 270q0 74 24 130.5t61.5 86.5t76.5 44.5t76 14.5q104 0 164 -71t60 -181h-431q-1 -8 -1 -24q0 -98 81 -170.5t230 -72.5q29 0 61 3v-30q-44 -4 -64 -4q-158 0 -248 81t-90 193zM84 324h396q0 71 -52 131.5t-140 60.5q-70 0 -129.5 -50t-74.5 -142zM210 632l151 109 l18 -24l-151 -109z" />
<glyph unicode="&#xea;" horiz-adv-x="562" d="M50 270q0 74 24 130.5t61.5 86.5t76.5 44.5t76 14.5q104 0 164 -71t60 -181h-431q-1 -8 -1 -24q0 -98 81 -170.5t230 -72.5q29 0 61 3v-30q-44 -4 -64 -4q-158 0 -248 81t-90 193zM84 324h396q0 71 -52 131.5t-140 60.5q-70 0 -129.5 -50t-74.5 -142zM202 626l89 115 l90 -115l-24 -18l-66 83l-65 -83z" />
<glyph unicode="&#xeb;" horiz-adv-x="562" d="M50 270q0 74 24 130.5t61.5 86.5t76.5 44.5t76 14.5q104 0 164 -71t60 -181h-431q-1 -8 -1 -24q0 -98 81 -170.5t230 -72.5q29 0 61 3v-30q-44 -4 -64 -4q-158 0 -248 81t-90 193zM84 324h396q0 71 -52 131.5t-140 60.5q-70 0 -129.5 -50t-74.5 -142zM199 650v50h50v-50 h-50zM334 650v50h50v-50h-50z" />
<glyph unicode="&#xec;" d="M1 717l18 24l151 -109l-18 -24zM70 0v536h30v-536h-30z" />
<glyph unicode="&#xed;" d="M16 632l151 109l18 -24l-151 -109zM70 0v536h30v-536h-30z" />
<glyph unicode="&#xee;" d="M-4 626l89 115l90 -115l-24 -18l-66 83l-65 -83zM70 0v536h30v-536h-30z" />
<glyph unicode="&#xef;" d="M-7 650v50h50v-50h-50zM70 0v536h30v-536h-30zM128 650v50h50v-50h-50z" />
<glyph unicode="&#xf1;" horiz-adv-x="544" d="M66 0v536h30v-44q73 54 169 54q70 0 126.5 -35t80.5 -99q12 -32 12 -70v-342h-30v342q0 80 -57.5 127t-131.5 47q-102 0 -169 -61v-455h-30zM148 661q25 47 70 47q29 0 57 -22q19 -15 38 -15q30 0 47 35l24 -18q-26 -47 -71 -47q-27 0 -56 21q-21 16 -39 16 q-30 0 -46 -35z" />
<glyph unicode="&#xf2;" horiz-adv-x="656" d="M50 268q0 115 81.5 196.5t196.5 81.5t196.5 -81.5t81.5 -196.5t-81.5 -196.5t-196.5 -81.5t-196.5 81.5t-81.5 196.5zM80 268q0 -103 72.5 -175.5t175.5 -72.5t175.5 72.5t72.5 175.5t-72.5 175.5t-175.5 72.5t-175.5 -72.5t-72.5 -175.5zM244 717l18 24l151 -109 l-18 -24z" />
<glyph unicode="&#xf3;" horiz-adv-x="656" d="M50 268q0 115 81.5 196.5t196.5 81.5t196.5 -81.5t81.5 -196.5t-81.5 -196.5t-196.5 -81.5t-196.5 81.5t-81.5 196.5zM80 268q0 -103 72.5 -175.5t175.5 -72.5t175.5 72.5t72.5 175.5t-72.5 175.5t-175.5 72.5t-175.5 -72.5t-72.5 -175.5zM256 632l151 109l18 -24 l-151 -109z" />
<glyph unicode="&#xf4;" horiz-adv-x="656" d="M50 268q0 115 81.5 196.5t196.5 81.5t196.5 -81.5t81.5 -196.5t-81.5 -196.5t-196.5 -81.5t-196.5 81.5t-81.5 196.5zM80 268q0 -103 72.5 -175.5t175.5 -72.5t175.5 72.5t72.5 175.5t-72.5 175.5t-175.5 72.5t-175.5 -72.5t-72.5 -175.5zM239 626l89 115l90 -115 l-24 -18l-66 83l-65 -83z" />
<glyph unicode="&#xf5;" horiz-adv-x="656" d="M50 268q0 115 81.5 196.5t196.5 81.5t196.5 -81.5t81.5 -196.5t-81.5 -196.5t-196.5 -81.5t-196.5 81.5t-81.5 196.5zM80 268q0 -103 72.5 -175.5t175.5 -72.5t175.5 72.5t72.5 175.5t-72.5 175.5t-175.5 72.5t-175.5 -72.5t-72.5 -175.5zM210 661q25 47 70 47 q29 0 57 -22q20 -15 38 -15q30 0 47 35l24 -18q-26 -47 -71 -47q-27 0 -56 21q-21 16 -39 16q-30 0 -46 -35z" />
<glyph unicode="&#xf6;" horiz-adv-x="656" d="M50 268q0 115 81.5 196.5t196.5 81.5t196.5 -81.5t81.5 -196.5t-81.5 -196.5t-196.5 -81.5t-196.5 81.5t-81.5 196.5zM80 268q0 -103 72.5 -175.5t175.5 -72.5t175.5 72.5t72.5 175.5t-72.5 175.5t-175.5 72.5t-175.5 -72.5t-72.5 -175.5zM236 650v50h50v-50h-50z M371 650v50h50v-50h-50z" />
<glyph unicode="&#xf7;" horiz-adv-x="480" d="M55 294v30h370v-30h-370zM210 129v60h60v-60h-60zM210 429v60h60v-60h-60z" />
<glyph unicode="&#xf8;" horiz-adv-x="656" d="M50 11l71 71q-71 81 -71 186q0 115 81.5 196.5t196.5 81.5q105 0 184 -71l72 72l22 -22l-72 -72q72 -78 72 -185q0 -115 -81.5 -196.5t-196.5 -81.5q-107 0 -185 70l-71 -71zM80 268q0 -95 62 -165l350 351q-70 62 -164 62q-103 0 -175.5 -72.5t-72.5 -175.5zM164 81 q71 -61 164 -61q103 0 175.5 72.5t72.5 175.5q0 92 -62 164z" />
<glyph unicode="&#xf9;" horiz-adv-x="538" d="M60 193v343h30v-343q0 -76 52 -124.5t127 -48.5t127 48.5t52 124.5v343h30v-343q0 -89 -61 -146t-148 -57t-148 57t-61 146zM171 717l18 24l151 -109l-18 -24z" />
<glyph unicode="&#xfa;" horiz-adv-x="538" d="M60 193v343h30v-343q0 -76 52 -124.5t127 -48.5t127 48.5t52 124.5v343h30v-343q0 -89 -61 -146t-148 -57t-148 57t-61 146zM191 632l151 109l18 -24l-151 -109z" />
<glyph unicode="&#xfb;" horiz-adv-x="538" d="M60 193v343h30v-343q0 -76 52 -124.5t127 -48.5t127 48.5t52 124.5v343h30v-343q0 -89 -61 -146t-148 -57t-148 57t-61 146zM183 626l89 115l90 -115l-24 -18l-66 83l-65 -83z" />
<glyph unicode="&#xfc;" horiz-adv-x="538" d="M60 193v343h30v-343q0 -76 52 -124.5t127 -48.5t127 48.5t52 124.5v343h30v-343q0 -89 -61 -146t-148 -57t-148 57t-61 146zM180 650v50h50v-50h-50zM315 650v50h50v-50h-50z" />
<glyph unicode="&#xfd;" horiz-adv-x="542" d="M60 186v350h30v-352q0 -78 56 -126t131 -48q51 0 88.5 19t80.5 60v447h30v-596q0 -94 -55.5 -163.5t-143.5 -69.5q-78 0 -148 68l20 22q62 -60 128 -60q74 0 121.5 60.5t47.5 142.5v107q-76 -67 -168 -67q-82 0 -150 55.5t-68 150.5zM184 632l151 109l18 -24l-151 -109z " />
<glyph unicode="&#xfe;" horiz-adv-x="514" d="M60 -235v1013h30v-235q12 1 35 1q160 0 249.5 -81t89.5 -192q0 -112 -89.5 -192.5t-250.5 -80.5h-34v-233h-30zM90 29q12 -1 34 -1q147 0 228.5 72t81.5 171t-81.5 171t-227.5 72q-23 0 -35 -1v-484z" />
<glyph unicode="&#xff;" horiz-adv-x="542" d="M60 186v350h30v-352q0 -78 56 -126t131 -48q51 0 88.5 19t80.5 60v447h30v-596q0 -94 -55.5 -163.5t-143.5 -69.5q-78 0 -148 68l20 22q62 -60 128 -60q74 0 121.5 60.5t47.5 142.5v107q-76 -67 -168 -67q-82 0 -150 55.5t-68 150.5zM176 650v50h50v-50h-50zM311 650v50 h50v-50h-50z" />
<glyph unicode="&#x100;" horiz-adv-x="634" d="M49 5l268 712l268 -712l-28 -10l-73 194h-334l-73 -194zM161 219h311l-155 413zM180 811v30h260v-30h-260z" />
<glyph unicode="&#x101;" horiz-adv-x="532" d="M55 187q0 87 62 141t150 54q103 0 175 -69v28q0 91 -45.5 133t-104.5 42q-96 0 -162 -64l-22 20q77 74 184 74q31 0 61 -10.5t57.5 -33t44.5 -64t17 -97.5v-341h-30v52q-68 -62 -175 -62q-87 0 -149.5 55t-62.5 142zM85 187q0 -74 53.5 -120.5t128.5 -46.5q113 0 175 76 v174q-67 82 -175 82q-76 0 -129 -45.5t-53 -119.5zM148 660v30h260v-30h-260z" />
<glyph unicode="&#x102;" horiz-adv-x="634" d="M49 5l268 712l268 -712l-28 -10l-73 194h-334l-73 -194zM161 219h311l-155 413zM210 871h30q0 -27 19 -43.5t51 -16.5t51 16.5t19 43.5h30q0 -38 -28 -64t-72 -26t-72 26t-28 64z" />
<glyph unicode="&#x103;" horiz-adv-x="532" d="M55 187q0 87 62 141t150 54q103 0 175 -69v28q0 91 -45.5 133t-104.5 42q-96 0 -162 -64l-22 20q77 74 184 74q31 0 61 -10.5t57.5 -33t44.5 -64t17 -97.5v-341h-30v52q-68 -62 -175 -62q-87 0 -149.5 55t-62.5 142zM85 187q0 -74 53.5 -120.5t128.5 -46.5q113 0 175 76 v174q-67 82 -175 82q-76 0 -129 -45.5t-53 -119.5zM177 720h30q0 -27 19 -43.5t51 -16.5t51 16.5t19 43.5h30q0 -38 -28 -64t-72 -26t-72 26t-28 64z" />
<glyph unicode="&#x104;" horiz-adv-x="634" d="M50 5l260 712l274 -710l-13 -6l7 -13q-46 -24 -46 -47q0 -17 21 -17q13 0 30 11l16 -26q-24 -15 -46 -15q-23 0 -37 13t-14 34q0 38 50 66l-70 182h-334l-71 -195zM159 219h311l-160 415z" />
<glyph unicode="&#x105;" horiz-adv-x="532" d="M55 187q0 87 62 141t150 54q103 0 175 -69v28q0 91 -45.5 133t-104.5 42q-96 0 -162 -64l-22 20q77 74 184 74q31 0 61 -10.5t57.5 -33t44.5 -64t17 -97.5v-341h-15l7 -12q-46 -24 -46 -47q0 -17 21 -17q13 0 30 11l16 -26q-24 -15 -46 -15q-23 0 -37 13t-14 34 q0 40 54 69v42q-68 -62 -175 -62q-87 0 -149.5 55t-62.5 142zM85 187q0 -74 53.5 -120.5t128.5 -46.5q113 0 175 76v174q-67 82 -175 82q-76 0 -129 -45.5t-53 -119.5z" />
<glyph unicode="&#x106;" horiz-adv-x="518" d="M55 350q0 68 21.5 130.5t62.5 113t107.5 80.5t148.5 30q40 0 73 -3l-2 -30q-33 3 -71 3q-75 0 -135.5 -27.5t-97.5 -74t-57 -103.5t-20 -119t20 -119t57 -103t97 -73.5t135 -27.5q39 0 72 3l2 -30q-33 -3 -74 -3q-82 0 -148 30t-107 80.5t-62.5 112.5t-21.5 130zM241 783 l151 109l18 -24l-151 -109z" />
<glyph unicode="&#x107;" horiz-adv-x="503" d="M50 268q0 112 89.5 194t249.5 82q31 0 64 -3l-2 -30q-33 3 -62 3q-146 0 -227.5 -73.5t-81.5 -172.5t81.5 -172t227.5 -73q29 0 62 3l2 -30q-33 -3 -64 -3q-160 0 -249.5 81.5t-89.5 193.5zM221 632l151 109l18 -24l-151 -109z" />
<glyph unicode="&#x108;" horiz-adv-x="518" d="M55 350q0 68 21.5 130.5t62.5 113t107.5 80.5t148.5 30q40 0 73 -3l-2 -30q-33 3 -71 3q-75 0 -135.5 -27.5t-97.5 -74t-57 -103.5t-20 -119t20 -119t57 -103t97 -73.5t135 -27.5q39 0 72 3l2 -30q-33 -3 -74 -3q-82 0 -148 30t-107 80.5t-62.5 112.5t-21.5 130zM227 777 l89 115l90 -115l-24 -18l-66 83l-65 -83z" />
<glyph unicode="&#x109;" horiz-adv-x="503" d="M50 268q0 112 89.5 194t249.5 82q31 0 64 -3l-2 -30q-33 3 -62 3q-146 0 -227.5 -73.5t-81.5 -172.5t81.5 -172t227.5 -73q29 0 62 3l2 -30q-33 -3 -64 -3q-160 0 -249.5 81.5t-89.5 193.5zM206 626l89 115l90 -115l-24 -18l-66 83l-65 -83z" />
<glyph unicode="&#x10a;" horiz-adv-x="518" d="M55 350q0 68 21.5 130.5t62.5 113t107.5 80.5t148.5 30q40 0 73 -3l-2 -30q-33 3 -71 3q-75 0 -135.5 -27.5t-97.5 -74t-57 -103.5t-20 -119t20 -119t57 -103t97 -73.5t135 -27.5q39 0 72 3l2 -30q-33 -3 -74 -3q-82 0 -148 30t-107 80.5t-62.5 112.5t-21.5 130zM293 801 v50h50v-50h-50z" />
<glyph unicode="&#x10b;" horiz-adv-x="503" d="M50 268q0 112 89.5 194t249.5 82q31 0 64 -3l-2 -30q-33 3 -62 3q-146 0 -227.5 -73.5t-81.5 -172.5t81.5 -172t227.5 -73q29 0 62 3l2 -30q-33 -3 -64 -3q-160 0 -249.5 81.5t-89.5 193.5zM282 650v50h50v-50h-50z" />
<glyph unicode="&#x10c;" horiz-adv-x="518" d="M55 350q0 68 21.5 130.5t62.5 113t107.5 80.5t148.5 30q40 0 73 -3l-2 -30q-33 3 -71 3q-75 0 -135.5 -27.5t-97.5 -74t-57 -103.5t-20 -119t20 -119t57 -103t97 -73.5t135 -27.5q39 0 72 3l2 -30q-33 -3 -74 -3q-82 0 -148 30t-107 80.5t-62.5 112.5t-21.5 130zM236 874 l24 18l65 -83l66 83l24 -18l-90 -115z" />
<glyph unicode="&#x10d;" horiz-adv-x="503" d="M50 268q0 112 89.5 194t249.5 82q31 0 64 -3l-2 -30q-33 3 -62 3q-146 0 -227.5 -73.5t-81.5 -172.5t81.5 -172t227.5 -73q29 0 62 3l2 -30q-33 -3 -64 -3q-160 0 -249.5 81.5t-89.5 193.5zM208 723l24 18l65 -83l66 83l24 -18l-90 -115z" />
<glyph unicode="&#x10e;" horiz-adv-x="551" d="M70 0v700q52 4 87 4q108 0 187 -52t115.5 -131t36.5 -171q0 -68 -21.5 -130t-62.5 -112.5t-107 -80.5t-148 -30q-48 0 -87 3zM100 28q17 -1 57 -1q75 0 135 27.5t97 73.5t57 103t20 119t-20 119t-57 103.5t-97.5 74t-134.5 27.5q-25 0 -57 -2v-644zM110 874l24 18l65 -83 l66 83l24 -18l-90 -115z" />
<glyph unicode="&#x10f;" horiz-adv-x="600" d="M50 270q0 112 89.5 193t250.5 81q12 0 46 -2v351h30v-893q-39 -3 -77 -3q-160 0 -249.5 81t-89.5 192zM80 270q0 -99 81.5 -171t227.5 -72q30 0 47 1v484q-32 2 -46 2q-147 0 -228.5 -72.5t-81.5 -171.5zM536 838v55h60v-70q0 -58 -47 -75l-10 28q27 9 27 47v15h-30z" />
<glyph unicode="&#x110;" horiz-adv-x="561" d="M-15 350v30h95v320q52 4 87 4q108 0 187 -52t115.5 -131t36.5 -171q0 -68 -21.5 -130t-62.5 -112.5t-107 -80.5t-148 -30q-48 0 -87 3v350h-95zM110 28q17 -1 57 -1q75 0 135 27.5t97 73.5t57 103t20 119t-20 119t-57 103.5t-97.5 74t-134.5 27.5q-25 0 -57 -2v-292h135 v-30h-135v-322z" />
<glyph unicode="&#x111;" horiz-adv-x="547" d="M50 270q0 112 89.5 193t250.5 81q12 0 46 -2v188h-115v30h115v133h30v-133h115v-30h-115v-730q-39 -3 -77 -3q-160 0 -249.5 81t-89.5 192zM80 270q0 -99 81.5 -171t227.5 -72q30 0 47 1v484q-32 2 -46 2q-147 0 -228.5 -72.5t-81.5 -171.5z" />
<glyph unicode="&#x112;" horiz-adv-x="521" d="M70 0v700h396v-30h-366v-264h300v-30h-300v-346h366v-30h-396zM138 811v30h260v-30h-260z" />
<glyph unicode="&#x113;" horiz-adv-x="562" d="M50 270q0 74 24 130.5t61.5 86.5t76.5 44.5t76 14.5q104 0 164 -71t60 -181h-431q-1 -8 -1 -24q0 -98 81 -170.5t230 -72.5q29 0 61 3v-30q-44 -4 -64 -4q-158 0 -248 81t-90 193zM84 324h396q0 71 -52 131.5t-140 60.5q-70 0 -129.5 -50t-74.5 -142zM151 660v30h260v-30 h-260z" />
<glyph unicode="&#x114;" horiz-adv-x="521" d="M70 0v700h396v-30h-366v-264h300v-30h-300v-346h366v-30h-396zM168 871h30q0 -27 19 -43.5t51 -16.5t51 16.5t19 43.5h30q0 -38 -28 -64t-72 -26t-72 26t-28 64z" />
<glyph unicode="&#x115;" horiz-adv-x="562" d="M50 270q0 74 24 130.5t61.5 86.5t76.5 44.5t76 14.5q104 0 164 -71t60 -181h-431q-1 -8 -1 -24q0 -98 81 -170.5t230 -72.5q29 0 61 3v-30q-44 -4 -64 -4q-158 0 -248 81t-90 193zM84 324h396q0 71 -52 131.5t-140 60.5q-70 0 -129.5 -50t-74.5 -142zM181 720h30 q0 -27 19 -43.5t51 -16.5t51 16.5t19 43.5h30q0 -38 -28 -64t-72 -26t-72 26t-28 64z" />
<glyph unicode="&#x116;" horiz-adv-x="521" d="M70 0v700h396v-30h-366v-264h300v-30h-300v-346h366v-30h-396zM243 801v50h50v-50h-50z" />
<glyph unicode="&#x117;" horiz-adv-x="562" d="M50 270q0 74 24 130.5t61.5 86.5t76.5 44.5t76 14.5q104 0 164 -71t60 -181h-431q-1 -8 -1 -24q0 -98 81 -170.5t230 -72.5q29 0 61 3v-30q-44 -4 -64 -4q-158 0 -248 81t-90 193zM84 324h396q0 71 -52 131.5t-140 60.5q-70 0 -129.5 -50t-74.5 -142zM256 650v50h50v-50 h-50z" />
<glyph unicode="&#x118;" horiz-adv-x="521" d="M70 0v700h396v-30h-366v-264h300v-30h-300v-346h366v-30h-91l7 -12q-46 -24 -46 -47q0 -17 21 -17q13 0 30 11l16 -26q-24 -15 -46 -15q-23 0 -37 13t-14 34q0 34 38 59h-274z" />
<glyph unicode="&#x119;" horiz-adv-x="562" d="M50 270q0 74 24 130.5t61.5 86.5t76.5 44.5t76 14.5q104 0 164 -71t60 -181h-431q-1 -8 -1 -24q0 -98 81 -170.5t230 -72.5q29 0 61 3v-30q-44 -4 -64 -4q-28 0 -52 3l4 -8q-46 -24 -46 -47q0 -17 21 -17q13 0 30 11l16 -26q-24 -15 -46 -15q-23 0 -37 13t-14 34 q0 34 38 59q-119 22 -185.5 97t-66.5 170zM84 324h396q0 71 -52 131.5t-140 60.5q-70 0 -129.5 -50t-74.5 -142z" />
<glyph unicode="&#x11a;" horiz-adv-x="521" d="M70 0v700h396v-30h-366v-264h300v-30h-300v-346h366v-30h-396zM179 874l24 18l65 -83l66 83l24 -18l-90 -115z" />
<glyph unicode="&#x11b;" horiz-adv-x="562" d="M50 270q0 74 24 130.5t61.5 86.5t76.5 44.5t76 14.5q104 0 164 -71t60 -181h-431q-1 -8 -1 -24q0 -98 81 -170.5t230 -72.5q29 0 61 3v-30q-44 -4 -64 -4q-158 0 -248 81t-90 193zM84 324h396q0 71 -52 131.5t-140 60.5q-70 0 -129.5 -50t-74.5 -142zM201 723l24 18 l65 -83l66 83l24 -18l-90 -115z" />
<glyph unicode="&#x11c;" horiz-adv-x="547" d="M55 350q0 92 36.5 171t115.5 131t187 52q35 0 87 -4v-31q-42 5 -87 5q-74 0 -134.5 -27.5t-97.5 -74t-57 -103.5t-20 -119t20 -119t57 -103t97 -73.5t135 -27.5q40 0 57 1v280h30v-308q-39 -3 -87 -3q-82 0 -148 30t-107 80.5t-62.5 112.5t-21.5 130zM250 777l89 115 l90 -115l-24 -18l-66 83l-65 -83z" />
<glyph unicode="&#x11d;" horiz-adv-x="532" d="M50 270q0 111 89.5 192t249.5 81q38 0 77 -3v-600q0 -94 -55.5 -163.5t-143.5 -69.5q-78 0 -148 68l20 22q62 -60 128 -60q74 0 121.5 60.5t47.5 142.5v59q-26 -3 -46 -3q-161 0 -250.5 81t-89.5 193zM80 270q0 -99 81.5 -171.5t228.5 -72.5q14 0 46 2v484q-17 1 -47 1 q-146 0 -227.5 -72t-81.5 -171zM206 626l89 115l90 -115l-24 -18l-66 83l-65 -83z" />
<glyph unicode="&#x11e;" horiz-adv-x="547" d="M55 350q0 92 36.5 171t115.5 131t187 52q35 0 87 -4v-31q-42 5 -87 5q-74 0 -134.5 -27.5t-97.5 -74t-57 -103.5t-20 -119t20 -119t57 -103t97 -73.5t135 -27.5q40 0 57 1v280h30v-308q-39 -3 -87 -3q-82 0 -148 30t-107 80.5t-62.5 112.5t-21.5 130zM239 871h30 q0 -27 19 -43.5t51 -16.5t51 16.5t19 43.5h30q0 -38 -28 -64t-72 -26t-72 26t-28 64z" />
<glyph unicode="&#x11f;" horiz-adv-x="532" d="M50 270q0 111 89.5 192t249.5 81q38 0 77 -3v-600q0 -94 -55.5 -163.5t-143.5 -69.5q-78 0 -148 68l20 22q62 -60 128 -60q74 0 121.5 60.5t47.5 142.5v59q-26 -3 -46 -3q-161 0 -250.5 81t-89.5 193zM80 270q0 -99 81.5 -171.5t228.5 -72.5q14 0 46 2v484q-17 1 -47 1 q-146 0 -227.5 -72t-81.5 -171zM206 720h30q0 -27 19 -43.5t51 -16.5t51 16.5t19 43.5h30q0 -38 -28 -64t-72 -26t-72 26t-28 64z" />
<glyph unicode="&#x120;" horiz-adv-x="547" d="M55 350q0 92 36.5 171t115.5 131t187 52q35 0 87 -4v-31q-42 5 -87 5q-74 0 -134.5 -27.5t-97.5 -74t-57 -103.5t-20 -119t20 -119t57 -103t97 -73.5t135 -27.5q40 0 57 1v280h30v-308q-39 -3 -87 -3q-82 0 -148 30t-107 80.5t-62.5 112.5t-21.5 130zM314 801v50h50v-50 h-50z" />
<glyph unicode="&#x121;" horiz-adv-x="532" d="M50 270q0 111 89.5 192t249.5 81q38 0 77 -3v-600q0 -94 -55.5 -163.5t-143.5 -69.5q-78 0 -148 68l20 22q62 -60 128 -60q74 0 121.5 60.5t47.5 142.5v59q-26 -3 -46 -3q-161 0 -250.5 81t-89.5 193zM80 270q0 -99 81.5 -171.5t228.5 -72.5q14 0 46 2v484q-17 1 -47 1 q-146 0 -227.5 -72t-81.5 -171zM284 650v50h50v-50h-50z" />
<glyph unicode="&#x122;" horiz-adv-x="547" d="M55 350q0 92 36.5 171t115.5 131t187 52q35 0 87 -4v-31q-42 5 -87 5q-74 0 -134.5 -27.5t-97.5 -74t-57 -103.5t-20 -119t20 -119t57 -103t97 -73.5t135 -27.5q40 0 57 1v280h30v-308q-39 -3 -87 -3q-82 0 -148 30t-107 80.5t-62.5 112.5t-21.5 130zM315 -50h60v-70 q0 -58 -47 -75l-10 28q27 9 27 47v15h-30v55z" />
<glyph unicode="&#x123;" horiz-adv-x="532" d="M50 270q0 111 89.5 192t249.5 81q38 0 77 -3v-600q0 -94 -55.5 -163.5t-143.5 -69.5q-78 0 -148 68l20 22q62 -60 128 -60q74 0 121.5 60.5t47.5 142.5v59q-26 -3 -46 -3q-161 0 -250.5 81t-89.5 193zM80 270q0 -99 81.5 -171.5t228.5 -72.5q14 0 46 2v484q-17 1 -47 1 q-146 0 -227.5 -72t-81.5 -171zM279 602v70q0 58 47 75l10 -28q-27 -9 -27 -47v-15h30v-55h-60z" />
<glyph unicode="&#x124;" horiz-adv-x="546" d="M70 0v700h30v-294h346v294h30v-700h-30v376h-346v-376h-30zM184 777l89 115l90 -115l-24 -18l-66 83l-65 -83z" />
<glyph unicode="&#x125;" horiz-adv-x="543" d="M-8 983l89 115l90 -115l-24 -18l-66 83l-65 -83zM66 0v893h30v-400q73 53 167 53q70 0 126.5 -34t80.5 -100q13 -33 13 -70v-342h-30v340q0 82 -57.5 129t-133.5 47q-97 0 -166 -61v-455h-30z" />
<glyph unicode="&#x126;" horiz-adv-x="546" d="M13 536v30h57v134h30v-134h346v134h30v-134h57v-30h-57v-536h-30v376h-346v-376h-30v536h-57zM100 406h346v130h-346v-130z" />
<glyph unicode="&#x127;" horiz-adv-x="558" d="M-34 700v30h115v163h30v-163h115v-30h-115v-207q73 53 167 53q70 0 126.5 -34t80.5 -100q13 -33 13 -70v-342h-30v340q0 82 -57.5 129t-133.5 47q-97 0 -166 -61v-455h-30v700h-115z" />
<glyph unicode="&#x128;" d="M-33 812q25 47 70 47q29 0 57 -22q19 -15 38 -15q30 0 47 35l24 -18q-26 -47 -71 -47q-28 0 -56 21q-21 16 -39 16q-30 0 -46 -35zM70 0v700h30v-700h-30z" />
<glyph unicode="&#x129;" d="M-33 661q25 47 70 47q29 0 57 -22q19 -15 38 -15q30 0 47 35l24 -18q-26 -47 -71 -47q-28 0 -56 21q-21 16 -39 16q-30 0 -46 -35zM70 0v536h30v-536h-30z" />
<glyph unicode="&#x12a;" d="M-45 811v30h260v-30h-260zM70 0v700h30v-700h-30z" />
<glyph unicode="&#x12b;" d="M-45 660v30h260v-30h-260zM70 0v536h30v-536h-30z" />
<glyph unicode="&#x12c;" d="M-15 871h30q0 -27 19 -43.5t51 -16.5t51 16.5t19 43.5h30q0 -38 -28 -64t-72 -26t-72 26t-28 64zM70 0v700h30v-700h-30z" />
<glyph unicode="&#x12d;" d="M-15 720h30q0 -27 19 -43.5t51 -16.5t51 16.5t19 43.5h30q0 -38 -28 -64t-72 -26t-72 26t-28 64zM70 0v536h30v-536h-30z" />
<glyph unicode="&#x12e;" d="M22 -59q0 38 48 65v694h30v-700h-9l7 -12q-46 -24 -46 -47q0 -17 21 -17q13 0 30 11l16 -26q-24 -15 -46 -15q-23 0 -37 13t-14 34z" />
<glyph unicode="&#x12f;" d="M22 -59q0 38 48 65v530h30v-536h-9l7 -12q-46 -24 -46 -47q0 -17 21 -17q13 0 30 11l16 -26q-24 -15 -46 -15q-23 0 -37 13t-14 34z" />
<glyph unicode="&#x130;" d="M60 801v50h50v-50h-50zM70 0v700h30v-700h-30z" />
<glyph unicode="&#x131;" d="M70 0v536h30v-536h-30z" />
<glyph unicode="&#x132;" horiz-adv-x="629" d="M70 0v700h30v-700h-30zM215 58l21 23q66 -61 127 -61q60 0 102.5 38.5t57.5 95.5q10 36 10 78v468h30v-477q0 -99 -56.5 -166t-143.5 -67q-80 0 -148 68z" />
<glyph unicode="&#x133;" horiz-adv-x="340" d="M48 -232l26 14q26 -45 72 -45q40 0 67 34.5t27 94.5v670h30v-670q0 -73 -35.5 -116t-88.5 -43q-64 0 -98 61zM60 650v50h50v-50h-50zM70 0v536h30v-536h-30zM230 651v49h50v-49h-50z" />
<glyph unicode="&#x134;" horiz-adv-x="459" d="M45 58l21 23q66 -61 127 -61q60 0 102.5 38.5t57.5 95.5q10 36 10 78v468h30v-477q0 -99 -56.5 -166t-143.5 -67q-80 0 -148 68zM289 777l89 115l90 -115l-24 -18l-66 83l-65 -83z" />
<glyph unicode="&#x135;" d="M-122 -232l26 14q26 -45 72 -45q40 0 67 34.5t27 94.5v670h30v-670q0 -73 -35.5 -116t-88.5 -43q-64 0 -98 61zM-4 626l89 115l90 -115l-24 -18l-66 83l-65 -83z" />
<glyph unicode="&#x136;" horiz-adv-x="576" d="M70 0v700h30v-366l405 377l20 -22l-347 -322l348 -357l-22 -20l-347 356l-57 -53v-293h-30zM268 -50h60v-70q0 -58 -47 -75l-10 28q27 9 27 47v15h-30v55z" />
<glyph unicode="&#x137;" horiz-adv-x="570" d="M66 0v893h30v-645l406 299l18 -24l-334 -247l334 -263l-18 -24l-341 269l-65 -48v-210h-30zM245 -50h60v-70q0 -58 -47 -75l-10 28q27 9 27 47v15h-30v55z" />
<glyph unicode="&#x139;" horiz-adv-x="493" d="M16 783l151 109l18 -24l-151 -109zM70 0v700h30v-670h338v-30h-368z" />
<glyph unicode="&#x13a;" horiz-adv-x="150" d="M6 989l151 109l18 -24l-151 -109zM60 0v893h30v-893h-30z" />
<glyph unicode="&#x13b;" horiz-adv-x="493" d="M70 0v700h30v-670h338v-30h-368zM224 -50h60v-70q0 -58 -47 -75l-10 28q27 9 27 47v15h-30v55z" />
<glyph unicode="&#x13c;" horiz-adv-x="150" d="M45 -50h60v-70q0 -58 -47 -75l-10 28q27 9 27 47v15h-30v55zM60 0v893h30v-893h-30z" />
<glyph unicode="&#x13d;" horiz-adv-x="493" d="M70 0v700h30v-670h338v-30h-368zM170 645v55h60v-70q0 -58 -47 -75l-10 28q27 9 27 47v15h-30z" />
<glyph unicode="&#x13e;" horiz-adv-x="150" d="M-14 1080l24 18l65 -83l66 83l24 -18l-90 -115zM60 0v893h30v-893h-30z" />
<glyph unicode="&#x13f;" horiz-adv-x="493" d="M70 0v700h30v-670h338v-30h-368zM221 355v50h50v-50h-50z" />
<glyph unicode="&#x140;" horiz-adv-x="150" d="M50 960v50h50v-50h-50zM60 0v893h30v-893h-30z" />
<glyph unicode="&#x141;" horiz-adv-x="493" d="M3 427l67 48v225h30v-203l71 51l18 -24l-89 -64v-430h338v-30h-368v438l-49 -35z" />
<glyph unicode="&#x142;" horiz-adv-x="162" d="M-4 505l70 50v338h30v-316l71 51l18 -24l-89 -64v-540h-30v518l-52 -37z" />
<glyph unicode="&#x143;" horiz-adv-x="557" d="M70 0v729l387 -648v619h30v-729l-387 648v-619h-30zM194 783l151 109l18 -24l-151 -109z" />
<glyph unicode="&#x144;" horiz-adv-x="544" d="M66 0v536h30v-44q73 54 169 54q70 0 126.5 -35t80.5 -99q12 -32 12 -70v-342h-30v342q0 80 -57.5 127t-131.5 47q-102 0 -169 -61v-455h-30zM185 632l151 109l18 -24l-151 -109z" />
<glyph unicode="&#x145;" horiz-adv-x="557" d="M70 0v729l387 -648v619h30v-729l-387 648v-619h-30zM248 -50h60v-70q0 -58 -47 -75l-10 28q27 9 27 47v15h-30v55z" />
<glyph unicode="&#x146;" horiz-adv-x="544" d="M66 0v536h30v-44q73 54 169 54q70 0 126.5 -35t80.5 -99q12 -32 12 -70v-342h-30v342q0 80 -57.5 127t-131.5 47q-102 0 -169 -61v-455h-30zM245 -50h60v-70q0 -58 -47 -75l-10 28q27 9 27 47v15h-30v55z" />
<glyph unicode="&#x147;" horiz-adv-x="557" d="M70 0v729l387 -648v619h30v-729l-387 648v-619h-30zM189 874l24 18l65 -83l66 83l24 -18l-90 -115z" />
<glyph unicode="&#x148;" horiz-adv-x="544" d="M66 0v536h30v-44q73 54 169 54q70 0 126.5 -35t80.5 -99q12 -32 12 -70v-342h-30v342q0 80 -57.5 127t-131.5 47q-102 0 -169 -61v-455h-30zM177 723l24 18l65 -83l66 83l24 -18l-90 -115z" />
<glyph unicode="&#x149;" horiz-adv-x="544" d="M51 662v55h60v-70q0 -58 -47 -75l-10 28q27 9 27 47v15h-30zM66 0v536h30v-44q73 54 169 54q70 0 126.5 -35t80.5 -99q12 -32 12 -70v-342h-30v342q0 80 -57.5 127t-131.5 47q-102 0 -169 -61v-455h-30z" />
<glyph unicode="&#x14c;" horiz-adv-x="818" d="M50 350q0 148 105 253.5t254 105.5t254 -105.5t105 -253.5t-105 -253.5t-254 -105.5t-254 105.5t-105 253.5zM80 350q0 -136 96 -232.5t233 -96.5t233 96.5t96 232.5t-96 232.5t-233 96.5t-233 -96.5t-96 -232.5zM279 811v30h260v-30h-260z" />
<glyph unicode="&#x14d;" horiz-adv-x="656" d="M50 268q0 115 81.5 196.5t196.5 81.5t196.5 -81.5t81.5 -196.5t-81.5 -196.5t-196.5 -81.5t-196.5 81.5t-81.5 196.5zM80 268q0 -103 72.5 -175.5t175.5 -72.5t175.5 72.5t72.5 175.5t-72.5 175.5t-175.5 72.5t-175.5 -72.5t-72.5 -175.5zM198 660v30h260v-30h-260z" />
<glyph unicode="&#x14e;" horiz-adv-x="818" d="M50 350q0 148 105 253.5t254 105.5t254 -105.5t105 -253.5t-105 -253.5t-254 -105.5t-254 105.5t-105 253.5zM80 350q0 -136 96 -232.5t233 -96.5t233 96.5t96 232.5t-96 232.5t-233 96.5t-233 -96.5t-96 -232.5zM309 871h30q0 -27 19 -43.5t51 -16.5t51 16.5t19 43.5h30 q0 -38 -28 -64t-72 -26t-72 26t-28 64z" />
<glyph unicode="&#x14f;" horiz-adv-x="656" d="M50 268q0 115 81.5 196.5t196.5 81.5t196.5 -81.5t81.5 -196.5t-81.5 -196.5t-196.5 -81.5t-196.5 81.5t-81.5 196.5zM80 268q0 -103 72.5 -175.5t175.5 -72.5t175.5 72.5t72.5 175.5t-72.5 175.5t-175.5 72.5t-175.5 -72.5t-72.5 -175.5zM228 720h30q0 -27 19 -43.5 t51 -16.5t51 16.5t19 43.5h30q0 -38 -28 -64t-72 -26t-72 26t-28 64z" />
<glyph unicode="&#x150;" horiz-adv-x="818" d="M50 350q0 148 105 253.5t254 105.5t254 -105.5t105 -253.5t-105 -253.5t-254 -105.5t-254 105.5t-105 253.5zM80 350q0 -136 96 -232.5t233 -96.5t233 96.5t96 232.5t-96 232.5t-233 96.5t-233 -96.5t-96 -232.5zM288 783l151 109l18 -24l-151 -109zM410 783l151 109 l18 -24l-151 -109z" />
<glyph unicode="&#x151;" horiz-adv-x="656" d="M50 268q0 115 81.5 196.5t196.5 81.5t196.5 -81.5t81.5 -196.5t-81.5 -196.5t-196.5 -81.5t-196.5 81.5t-81.5 196.5zM80 268q0 -103 72.5 -175.5t175.5 -72.5t175.5 72.5t72.5 175.5t-72.5 175.5t-175.5 72.5t-175.5 -72.5t-72.5 -175.5zM204 632l151 109l18 -24 l-151 -109zM326 632l151 109l18 -24l-151 -109z" />
<glyph unicode="&#x152;" horiz-adv-x="1191" d="M50 350q0 148 105 253.5t254 105.5q109 0 197.5 -59t131.5 -157v207h396v-30h-366v-264h300v-30h-300v-346h366v-30h-396v206q-43 -97 -131.5 -156t-197.5 -59q-149 0 -254 105.5t-105 253.5zM80 350q0 -136 96 -232.5t233 -96.5t233 96.5t96 232.5t-96 232.5t-233 96.5 t-233 -96.5t-96 -232.5z" />
<glyph unicode="&#x153;" horiz-adv-x="1088" d="M50 268q0 115 81.5 196.5t196.5 81.5q87 0 158.5 -50t101.5 -130q17 63 58.5 105.5t83.5 58.5t84 16q104 0 164 -71t60 -181h-431q-1 -5 -1 -15v-9q0 -98 81 -170.5t230 -72.5q29 0 61 3v-30q-44 -4 -64 -4q-124 0 -207.5 52t-114.5 133q-28 -84 -100.5 -137.5 t-163.5 -53.5q-115 0 -196.5 81.5t-81.5 196.5zM80 268q0 -103 72.5 -175.5t175.5 -72.5t175.5 72.5t72.5 175.5t-72.5 175.5t-175.5 72.5t-175.5 -72.5t-72.5 -175.5zM610 324h396q0 71 -52 131.5t-140 60.5q-70 0 -129.5 -50t-74.5 -142z" />
<glyph unicode="&#x154;" horiz-adv-x="546" d="M70 0v700q39 3 77 3q160 0 249.5 -69.5t89.5 -164.5q0 -66 -45.5 -123t-130.5 -86l191 -251l-24 -18l-198 260q-57 -15 -132 -15q-13 0 -47 2v-238h-30zM100 268q32 -2 47 -2q146 0 227.5 60t81.5 143t-81.5 143.5t-227.5 60.5q-30 0 -47 -1v-404zM138 783l151 109 l18 -24l-151 -109z" />
<glyph unicode="&#x155;" horiz-adv-x="300" d="M66 0v536h30v-44q73 54 169 54v-30q-102 0 -169 -61v-455h-30zM81 632l151 109l18 -24l-151 -109z" />
<glyph unicode="&#x156;" horiz-adv-x="546" d="M70 0v700q39 3 77 3q160 0 249.5 -69.5t89.5 -164.5q0 -66 -45.5 -123t-130.5 -86l191 -251l-24 -18l-198 260q-57 -15 -132 -15q-13 0 -47 2v-238h-30zM100 268q32 -2 47 -2q146 0 227.5 60t81.5 143t-81.5 143.5t-227.5 60.5q-30 0 -47 -1v-404zM255 -50h60v-70 q0 -58 -47 -75l-10 28q27 9 27 47v15h-30v55z" />
<glyph unicode="&#x157;" horiz-adv-x="300" d="M66 0v536h30v-44q73 54 169 54v-30q-102 0 -169 -61v-455h-30zM125 -50h60v-70q0 -58 -47 -75l-10 28q27 9 27 47v15h-30v55z" />
<glyph unicode="&#x158;" horiz-adv-x="546" d="M70 0v700q39 3 77 3q160 0 249.5 -69.5t89.5 -164.5q0 -66 -45.5 -123t-130.5 -86l191 -251l-24 -18l-198 260q-57 -15 -132 -15q-13 0 -47 2v-238h-30zM100 268q32 -2 47 -2q146 0 227.5 60t81.5 143t-81.5 143.5t-227.5 60.5q-30 0 -47 -1v-404zM119 874l24 18l65 -83 l66 83l24 -18l-90 -115z" />
<glyph unicode="&#x159;" horiz-adv-x="300" d="M66 0v536h30v-44q73 54 169 54v-30q-102 0 -169 -61v-455h-30zM76 723l24 18l65 -83l66 83l24 -18l-90 -115z" />
<glyph unicode="&#x15a;" horiz-adv-x="516" d="M55 520q0 84 59.5 138t148.5 54q66 0 117.5 -30t76.5 -88l-28 -12q-22 49 -66 74.5t-100 25.5q-76 0 -127 -45.5t-51 -116.5q0 -30 15.5 -55.5t44.5 -44.5t55.5 -31.5t62.5 -24.5q40 -14 70 -28t61.5 -36t49 -52.5t17.5 -67.5q0 -84 -59.5 -138t-148.5 -54 q-66 0 -117.5 30t-76.5 88l28 12q22 -49 66 -74.5t100 -25.5q76 0 127 45.5t51 116.5q0 30 -15.5 55.5t-44.5 44.5t-55.5 31.5t-62.5 24.5q-40 14 -70 28t-61.5 36t-49 52.5t-17.5 67.5zM174 783l151 109l18 -24l-151 -109z" />
<glyph unicode="&#x15b;" horiz-adv-x="464" d="M50 388q0 66 62 110.5t163 44.5q59 0 110 -21l-12 -28q-49 19 -98 19q-88 0 -141.5 -35.5t-53.5 -89.5q0 -79 154 -105q86 -14 133 -49t47 -86q0 -66 -62 -110.5t-163 -44.5q-59 0 -110 21l12 28q49 -19 98 -19q88 0 141.5 35.5t53.5 89.5q0 79 -154 105q-86 14 -133 49 t-47 86zM154 632l151 109l18 -24l-151 -109z" />
<glyph unicode="&#x15c;" horiz-adv-x="516" d="M55 520q0 84 59.5 138t148.5 54q66 0 117.5 -30t76.5 -88l-28 -12q-22 49 -66 74.5t-100 25.5q-76 0 -127 -45.5t-51 -116.5q0 -30 15.5 -55.5t44.5 -44.5t55.5 -31.5t62.5 -24.5q40 -14 70 -28t61.5 -36t49 -52.5t17.5 -67.5q0 -84 -59.5 -138t-148.5 -54 q-66 0 -117.5 30t-76.5 88l28 12q22 -49 66 -74.5t100 -25.5q76 0 127 45.5t51 116.5q0 30 -15.5 55.5t-44.5 44.5t-55.5 31.5t-62.5 24.5q-40 14 -70 28t-61.5 36t-49 52.5t-17.5 67.5zM169 777l89 115l90 -115l-24 -18l-66 83l-65 -83z" />
<glyph unicode="&#x15d;" horiz-adv-x="464" d="M50 388q0 66 62 110.5t163 44.5q59 0 110 -21l-12 -28q-49 19 -98 19q-88 0 -141.5 -35.5t-53.5 -89.5q0 -79 154 -105q86 -14 133 -49t47 -86q0 -66 -62 -110.5t-163 -44.5q-59 0 -110 21l12 28q49 -19 98 -19q88 0 141.5 35.5t53.5 89.5q0 79 -154 105q-86 14 -133 49 t-47 86zM143 626l89 115l90 -115l-24 -18l-66 83l-65 -83z" />
<glyph unicode="&#x15e;" horiz-adv-x="516" d="M55 520q0 84 59.5 138t148.5 54q66 0 117.5 -30t76.5 -88l-28 -12q-22 49 -66 74.5t-100 25.5q-76 0 -127 -45.5t-51 -116.5q0 -30 15.5 -55.5t44.5 -44.5t55.5 -31.5t62.5 -24.5q40 -14 70 -28t61.5 -36t49 -52.5t17.5 -67.5q0 -78 -53 -131t-134 -60l-3 -10 q36 -7 36 -41q0 -25 -18 -37.5t-43 -12.5q-17 0 -32 6l10 28q9 -4 23 -4q30 0 30 20q0 10 -32 10h-13l10 40q-62 2 -111 32t-72 86l28 12q22 -49 66 -74.5t100 -25.5q76 0 127 45.5t51 116.5q0 30 -15.5 55.5t-44.5 44.5t-55.5 31.5t-62.5 24.5q-40 14 -70 28t-61.5 36 t-49 52.5t-17.5 67.5z" />
<glyph unicode="&#x15f;" horiz-adv-x="464" d="M50 388q0 66 62 110.5t163 44.5q59 0 110 -21l-12 -28q-49 19 -98 19q-88 0 -141.5 -35.5t-53.5 -89.5q0 -79 154 -105q86 -14 133 -49t47 -86q0 -55 -44.5 -96.5t-120.5 -53.5l-6 -19q36 -7 36 -41q0 -25 -18 -37.5t-43 -12.5q-17 0 -32 6l10 28q9 -4 23 -4q30 0 30 20 q0 10 -32 10h-13l12 46q-11 -1 -27 -1q-59 0 -110 21l12 28q49 -19 98 -19q88 0 141.5 35.5t53.5 89.5q0 79 -154 105q-86 14 -133 49t-47 86z" />
<glyph unicode="&#x160;" horiz-adv-x="516" d="M55 520q0 84 59.5 138t148.5 54q66 0 117.5 -30t76.5 -88l-28 -12q-22 49 -66 74.5t-100 25.5q-76 0 -127 -45.5t-51 -116.5q0 -30 15.5 -55.5t44.5 -44.5t55.5 -31.5t62.5 -24.5q40 -14 70 -28t61.5 -36t49 -52.5t17.5 -67.5q0 -84 -59.5 -138t-148.5 -54 q-66 0 -117.5 30t-76.5 88l28 12q22 -49 66 -74.5t100 -25.5q76 0 127 45.5t51 116.5q0 30 -15.5 55.5t-44.5 44.5t-55.5 31.5t-62.5 24.5q-40 14 -70 28t-61.5 36t-49 52.5t-17.5 67.5zM169 874l24 18l65 -83l66 83l24 -18l-90 -115z" />
<glyph unicode="&#x161;" horiz-adv-x="464" d="M50 388q0 66 62 110.5t163 44.5q59 0 110 -21l-12 -28q-49 19 -98 19q-88 0 -141.5 -35.5t-53.5 -89.5q0 -79 154 -105q86 -14 133 -49t47 -86q0 -66 -62 -110.5t-163 -44.5q-59 0 -110 21l12 28q49 -19 98 -19q88 0 141.5 35.5t53.5 89.5q0 79 -154 105q-86 14 -133 49 t-47 86zM143 723l24 18l65 -83l66 83l24 -18l-90 -115z" />
<glyph unicode="&#x162;" horiz-adv-x="566" d="M50 670v30h466v-30h-218v-670h-30v670h-218zM253 -50h60v-70q0 -58 -47 -75l-10 28q27 9 27 47v15h-30v55z" />
<glyph unicode="&#x163;" horiz-adv-x="296" d="M21 506v30h45v174h30v-174h158v-30h-158v-318q0 -78 42.5 -118.5t110.5 -40.5q14 0 23 1l4 -30q-9 -1 -27 -1q-81 0 -132 48t-51 141v318h-45zM139 -50h60v-70q0 -58 -47 -75l-10 28q27 9 27 47v15h-30v55z" />
<glyph unicode="&#x164;" horiz-adv-x="566" d="M50 670v30h466v-30h-218v-670h-30v670h-218zM194 874l24 18l65 -83l66 83l24 -18l-90 -115z" />
<glyph unicode="&#x165;" horiz-adv-x="296" d="M21 506v30h45v174h30v-174h158v-30h-158v-318q0 -78 42.5 -118.5t110.5 -40.5q14 0 23 1l4 -30q-9 -1 -27 -1q-81 0 -132 48t-51 141v318h-45zM166 695v55h60v-70q0 -58 -47 -75l-10 28q27 9 27 47v15h-30z" />
<glyph unicode="&#x166;" horiz-adv-x="566" d="M50 670v30h466v-30h-218v-194h115v-30h-115v-446h-30v446h-115v30h115v194h-218z" />
<glyph unicode="&#x167;" horiz-adv-x="311" d="M-34 355v30h115v121h-45v30h45v174h30v-174h158v-30h-158v-121h115v-30h-115v-167q0 -78 42.5 -118.5t110.5 -40.5q14 0 23 1l4 -30q-9 -1 -27 -1q-81 0 -132 48t-51 141v167h-115z" />
<glyph unicode="&#x168;" horiz-adv-x="558" d="M66 193v507h30v-507q0 -75 54 -124t129 -49t129 49t54 124v507h30v-507q0 -89 -62.5 -146t-150.5 -57t-150.5 57t-62.5 146zM161 812q25 47 70 47q29 0 57 -22q19 -15 38 -15q30 0 47 35l24 -18q-26 -47 -71 -47q-28 0 -56 21q-21 16 -39 16q-30 0 -46 -35z" />
<glyph unicode="&#x169;" horiz-adv-x="538" d="M60 193v343h30v-343q0 -76 52 -124.5t127 -48.5t127 48.5t52 124.5v343h30v-343q0 -89 -61 -146t-148 -57t-148 57t-61 146zM155 661q25 47 70 47q29 0 57 -22q19 -15 38 -15q30 0 47 35l24 -18q-26 -47 -71 -47q-28 0 -56 21q-21 16 -39 16q-30 0 -46 -35z" />
<glyph unicode="&#x16a;" horiz-adv-x="558" d="M66 193v507h30v-507q0 -75 54 -124t129 -49t129 49t54 124v507h30v-507q0 -89 -62.5 -146t-150.5 -57t-150.5 57t-62.5 146zM149 811v30h260v-30h-260z" />
<glyph unicode="&#x16b;" horiz-adv-x="538" d="M60 193v343h30v-343q0 -76 52 -124.5t127 -48.5t127 48.5t52 124.5v343h30v-343q0 -89 -61 -146t-148 -57t-148 57t-61 146zM143 660v30h260v-30h-260z" />
<glyph unicode="&#x16c;" horiz-adv-x="558" d="M66 193v507h30v-507q0 -75 54 -124t129 -49t129 49t54 124v507h30v-507q0 -89 -62.5 -146t-150.5 -57t-150.5 57t-62.5 146zM179 871h30q0 -27 19 -43.5t51 -16.5t51 16.5t19 43.5h30q0 -38 -28 -64t-72 -26t-72 26t-28 64z" />
<glyph unicode="&#x16d;" horiz-adv-x="538" d="M60 193v343h30v-343q0 -76 52 -124.5t127 -48.5t127 48.5t52 124.5v343h30v-343q0 -89 -61 -146t-148 -57t-148 57t-61 146zM173 720h30q0 -27 19 -43.5t51 -16.5t51 16.5t19 43.5h30q0 -38 -28 -64t-72 -26t-72 26t-28 64z" />
<glyph unicode="&#x16e;" horiz-adv-x="558" d="M66 193v507h30v-507q0 -75 54 -124t129 -49t129 49t54 124v507h30v-507q0 -89 -62.5 -146t-150.5 -57t-150.5 57t-62.5 146zM212 826q0 28 19.5 47.5t47.5 19.5t47.5 -19.5t19.5 -47.5t-19.5 -47.5t-47.5 -19.5t-47.5 19.5t-19.5 47.5zM242 826q0 -15 11 -26t26 -11 t26 11t11 26t-11 26t-26 11t-26 -11t-11 -26z" />
<glyph unicode="&#x16f;" horiz-adv-x="538" d="M60 193v343h30v-343q0 -76 52 -124.5t127 -48.5t127 48.5t52 124.5v343h30v-343q0 -89 -61 -146t-148 -57t-148 57t-61 146zM206 675q0 28 19.5 47.5t47.5 19.5t47.5 -19.5t19.5 -47.5t-19.5 -47.5t-47.5 -19.5t-47.5 19.5t-19.5 47.5zM236 675q0 -15 11 -26t26 -11 t26 11t11 26t-11 26t-26 11t-26 -11t-11 -26z" />
<glyph unicode="&#x170;" horiz-adv-x="558" d="M66 193v507h30v-507q0 -75 54 -124t129 -49t129 49t54 124v507h30v-507q0 -89 -62.5 -146t-150.5 -57t-150.5 57t-62.5 146zM175 783l151 109l18 -24l-151 -109zM297 783l151 109l18 -24l-151 -109z" />
<glyph unicode="&#x171;" horiz-adv-x="538" d="M60 193v343h30v-343q0 -76 52 -124.5t127 -48.5t127 48.5t52 124.5v343h30v-343q0 -89 -61 -146t-148 -57t-148 57t-61 146zM154 632l151 109l18 -24l-151 -109zM276 632l151 109l18 -24l-151 -109z" />
<glyph unicode="&#x172;" horiz-adv-x="558" d="M66 193v507h30v-507q0 -75 54 -124t129 -49t129 49t54 124v507h30v-507q0 -84 -56.5 -140t-138.5 -62l9 -16q-46 -24 -46 -47q0 -17 21 -17q13 0 30 11l16 -26q-24 -15 -46 -15q-23 0 -37 13t-14 34q0 35 42 62q-86 2 -146 59t-60 144z" />
<glyph unicode="&#x173;" horiz-adv-x="538" d="M60 193v343h30v-343q0 -76 52 -124.5t127 -48.5t127 48.5t52 124.5v343h30v-343q0 -84 -53.5 -139t-133.5 -63l9 -16q-46 -24 -46 -47q0 -17 21 -17q13 0 30 11l16 -26q-24 -15 -46 -15q-23 0 -37 13t-14 34q0 35 42 62q-86 1 -146 58t-60 145z" />
<glyph unicode="&#x174;" horiz-adv-x="773" d="M50 696l28 8l184 -630l109 374l-72 248l28 8l59 -204l60 204l28 -8l-73 -248l110 -374l184 630l28 -8l-212 -726l-125 427l-124 -427zM297 777l89 115l90 -115l-24 -18l-66 83l-65 -83z" />
<glyph unicode="&#x175;" horiz-adv-x="778" d="M50 531l28 10l185 -479l110 285l-71 184l28 10l59 -153l59 153l28 -10l-71 -184l110 -285l185 479l28 -10l-213 -551l-126 326l-126 -326zM301 626l89 115l90 -115l-24 -18l-66 83l-65 -83z" />
<glyph unicode="&#x176;" horiz-adv-x="558" d="M50 692l26 16l203 -329l203 329l26 -16l-214 -347v-345h-30v345zM190 777l89 115l90 -115l-24 -18l-66 83l-65 -83z" />
<glyph unicode="&#x177;" horiz-adv-x="542" d="M60 186v350h30v-352q0 -78 56 -126t131 -48q51 0 88.5 19t80.5 60v447h30v-596q0 -94 -55.5 -163.5t-143.5 -69.5q-78 0 -148 68l20 22q62 -60 128 -60q74 0 121.5 60.5t47.5 142.5v107q-76 -67 -168 -67q-82 0 -150 55.5t-68 150.5zM179 626l89 115l90 -115l-24 -18 l-66 83l-65 -83z" />
<glyph unicode="&#x178;" horiz-adv-x="558" d="M50 692l26 16l203 -329l203 329l26 -16l-214 -347v-345h-30v345zM187 801v50h50v-50h-50zM322 801v50h50v-50h-50z" />
<glyph unicode="&#x179;" horiz-adv-x="550" d="M55 0l388 670h-385v30h437l-388 -670h385v-30h-437zM191 783l151 109l18 -24l-151 -109z" />
<glyph unicode="&#x17a;" horiz-adv-x="534" d="M46 0l381 506h-377v30h438l-381 -506h377v-30h-438zM193 632l151 109l18 -24l-151 -109z" />
<glyph unicode="&#x17b;" horiz-adv-x="550" d="M52 0l388 670h-385v30h437l-388 -670h385v-30h-437zM247 801v50h50v-50h-50z" />
<glyph unicode="&#x17c;" horiz-adv-x="534" d="M46 0l381 506h-377v30h438l-381 -506h377v-30h-438zM242 650v50h50v-50h-50z" />
<glyph unicode="&#x17d;" horiz-adv-x="550" d="M52 0l388 670h-385v30h437l-388 -670h385v-30h-437zM183 874l24 18l65 -83l66 83l24 -18l-90 -115z" />
<glyph unicode="&#x17e;" horiz-adv-x="534" d="M46 0l381 506h-377v30h438l-381 -506h377v-30h-438zM178 723l24 18l65 -83l66 83l24 -18l-90 -115z" />
<glyph unicode="&#x17f;" horiz-adv-x="150" d="M60 0v611q0 64 46.5 106.5t106.5 42.5v-30q-48 0 -85.5 -34t-37.5 -85v-611h-30z" />
<glyph unicode="&#x192;" horiz-adv-x="302" d="M-26 -203q68 0 115 46t47 128v465h-115v30h115v176q0 94 56 148t136 54v-30q-68 0 -115 -46t-47 -128v-174h115v-30h-115v-467q0 -94 -56 -148t-136 -54v30z" />
<glyph unicode="&#x1fc;" horiz-adv-x="748" d="M50 7l347 693h296v-30h-266v-264h200v-30h-200v-346h266v-30h-296v168h-234l-87 -175zM178 198h219v437zM389 783l151 109l18 -24l-151 -109z" />
<glyph unicode="&#x1fd;" horiz-adv-x="924" d="M55 187q0 87 62 141t150 54q103 0 175 -69v27q0 92 -45.5 134t-104.5 42q-96 0 -162 -64l-22 20q77 74 184 74q62 0 111.5 -38t62.5 -108q32 74 93 110t121 36q102 0 153 -69.5t51 -182.5h-411q-1 -8 -1 -24v-9q3 -96 80 -165t221 -69q30 0 61 3v-30q-44 -4 -64 -4 q-110 0 -186 41.5t-112 109.5v-147h-30v52q-68 -62 -175 -62q-87 0 -149.5 55t-62.5 142zM85 187q0 -74 53.5 -120.5t128.5 -46.5q113 0 175 76v174q-67 82 -175 82q-76 0 -129 -45.5t-53 -119.5zM407 632l151 109l18 -24l-151 -109zM476 324h376q0 74 -43 133t-129 59 q-70 0 -129.5 -50t-74.5 -142z" />
<glyph unicode="&#x1fe;" horiz-adv-x="818" d="M50 13l94 94q-94 104 -94 243q0 148 105 253.5t254 105.5q139 0 242 -95l95 95l22 -22l-95 -95q95 -103 95 -242q0 -148 -105 -253.5t-254 -105.5q-139 0 -243 94l-94 -94zM80 350q0 -127 85 -222l465 465q-94 86 -221 86q-137 0 -233 -96.5t-96 -232.5zM187 106 q95 -85 222 -85q137 0 233 96.5t96 232.5q0 127 -86 221zM325 783l151 109l18 -24l-151 -109z" />
<glyph unicode="&#x1ff;" horiz-adv-x="656" d="M50 11l71 71q-71 81 -71 186q0 115 81.5 196.5t196.5 81.5q105 0 184 -71l72 72l22 -22l-72 -72q72 -78 72 -185q0 -115 -81.5 -196.5t-196.5 -81.5q-107 0 -185 70l-71 -71zM80 268q0 -95 62 -165l350 351q-70 62 -164 62q-103 0 -175.5 -72.5t-72.5 -175.5zM164 81 q71 -61 164 -61q103 0 175.5 72.5t72.5 175.5q0 92 -62 164zM247 632l151 109l18 -24l-151 -109z" />
<glyph unicode="&#x218;" horiz-adv-x="516" d="M55 520q0 84 59.5 138t148.5 54q66 0 117.5 -30t76.5 -88l-28 -12q-22 49 -66 74.5t-100 25.5q-76 0 -127 -45.5t-51 -116.5q0 -30 15.5 -55.5t44.5 -44.5t55.5 -31.5t62.5 -24.5q40 -14 70 -28t61.5 -36t49 -52.5t17.5 -67.5q0 -84 -59.5 -138t-148.5 -54 q-66 0 -117.5 30t-76.5 88l28 12q22 -49 66 -74.5t100 -25.5q76 0 127 45.5t51 116.5q0 30 -15.5 55.5t-44.5 44.5t-55.5 31.5t-62.5 24.5q-40 14 -70 28t-61.5 36t-49 52.5t-17.5 67.5zM228 -50h60v-70q0 -58 -47 -75l-10 28q27 9 27 47v15h-30v55z" />
<glyph unicode="&#x219;" horiz-adv-x="464" d="M50 388q0 66 62 110.5t163 44.5q59 0 110 -21l-12 -28q-49 19 -98 19q-88 0 -141.5 -35.5t-53.5 -89.5q0 -79 154 -105q86 -14 133 -49t47 -86q0 -66 -62 -110.5t-163 -44.5q-59 0 -110 21l12 28q49 -19 98 -19q88 0 141.5 35.5t53.5 89.5q0 79 -154 105q-86 14 -133 49 t-47 86zM203 -50h60v-70q0 -58 -47 -75l-10 28q27 9 27 47v15h-30v55z" />
<glyph unicode="&#x259;" horiz-adv-x="562" d="M50 258v15h431q-4 108 -64 175.5t-150 67.5q-79 0 -138 -50l-20 22q67 58 158 58q113 0 179 -83t66 -205q0 -67 -23 -121t-59.5 -84.5t-76 -46.5t-76.5 -16q-112 0 -169.5 77.5t-57.5 190.5zM81 243q3 -95 52.5 -159t143.5 -64q71 0 135 58.5t69 164.5h-400z" />
<glyph unicode="&#x2c6;" horiz-adv-x="319" d="M70 626l89 115l90 -115l-24 -18l-66 83l-65 -83z" />
<glyph unicode="&#x2c7;" horiz-adv-x="319" d="M70 723l24 18l65 -83l66 83l24 -18l-90 -115z" />
<glyph unicode="&#x2d8;" horiz-adv-x="340" d="M70 720h30q0 -27 19 -43.5t51 -16.5t51 16.5t19 43.5h30q0 -38 -28 -64t-72 -26t-72 26t-28 64z" />
<glyph unicode="&#x2d9;" horiz-adv-x="190" d="M70 650v50h50v-50h-50z" />
<glyph unicode="&#x2da;" horiz-adv-x="304" d="M85 675q0 28 19.5 47.5t47.5 19.5t47.5 -19.5t19.5 -47.5t-19.5 -47.5t-47.5 -19.5t-47.5 19.5t-19.5 47.5zM115 675q0 -15 11 -26t26 -11t26 11t11 26t-11 26t-26 11t-26 -11t-11 -26z" />
<glyph unicode="&#x2db;" horiz-adv-x="313" d="M131 -77q0 41 62 73l14 -26q-46 -24 -46 -47q0 -17 21 -17q13 0 30 11l16 -26q-24 -15 -46 -15q-23 0 -37 13t-14 34z" />
<glyph unicode="&#x2dc;" horiz-adv-x="358" d="M61 661q25 47 70 47q29 0 57 -22q20 -15 38 -15q30 0 47 35l24 -18q-26 -47 -71 -47q-28 0 -56 21q-21 16 -39 16q-30 0 -46 -35z" />
<glyph unicode="&#x2dd;" horiz-adv-x="411" d="M70 632l151 109l18 -24l-151 -109zM192 632l151 109l18 -24l-151 -109z" />
<glyph unicode="&#x1e80;" horiz-adv-x="773" d="M50 696l28 8l184 -630l109 374l-72 248l28 8l59 -204l60 204l28 -8l-73 -248l110 -374l184 630l28 -8l-212 -726l-125 427l-124 -427zM302 868l18 24l151 -109l-18 -24z" />
<glyph unicode="&#x1e81;" horiz-adv-x="778" d="M50 531l28 10l185 -479l110 285l-71 184l28 10l59 -153l59 153l28 -10l-71 -184l110 -285l185 479l28 -10l-213 -551l-126 326l-126 -326zM306 717l18 24l151 -109l-18 -24z" />
<glyph unicode="&#x1e82;" horiz-adv-x="773" d="M50 696l28 8l184 -630l109 374l-72 248l28 8l59 -204l60 204l28 -8l-73 -248l110 -374l184 630l28 -8l-212 -726l-125 427l-124 -427zM302 783l151 109l18 -24l-151 -109z" />
<glyph unicode="&#x1e83;" horiz-adv-x="778" d="M50 531l28 10l185 -479l110 285l-71 184l28 10l59 -153l59 153l28 -10l-71 -184l110 -285l185 479l28 -10l-213 -551l-126 326l-126 -326zM306 632l151 109l18 -24l-151 -109z" />
<glyph unicode="&#x1e84;" horiz-adv-x="773" d="M50 696l28 8l184 -630l109 374l-72 248l28 8l59 -204l60 204l28 -8l-73 -248l110 -374l184 630l28 -8l-212 -726l-125 427l-124 -427zM294 801v50h50v-50h-50zM429 801v50h50v-50h-50z" />
<glyph unicode="&#x1e85;" horiz-adv-x="778" d="M50 531l28 10l185 -479l110 285l-71 184l28 10l59 -153l59 153l28 -10l-71 -184l110 -285l185 479l28 -10l-213 -551l-126 326l-126 -326zM298 650v50h50v-50h-50zM433 650v50h50v-50h-50z" />
<glyph unicode="&#x1ef2;" horiz-adv-x="558" d="M50 692l26 16l203 -329l203 329l26 -16l-214 -347v-345h-30v345zM195 868l18 24l151 -109l-18 -24z" />
<glyph unicode="&#x1ef3;" horiz-adv-x="542" d="M60 186v350h30v-352q0 -78 56 -126t131 -48q51 0 88.5 19t80.5 60v447h30v-596q0 -94 -55.5 -163.5t-143.5 -69.5q-78 0 -148 68l20 22q62 -60 128 -60q74 0 121.5 60.5t47.5 142.5v107q-76 -67 -168 -67q-82 0 -150 55.5t-68 150.5zM184 717l18 24l151 -109l-18 -24z " />
<glyph unicode="&#x2000;" horiz-adv-x="549" />
<glyph unicode="&#x2001;" horiz-adv-x="1098" />
<glyph unicode="&#x2002;" horiz-adv-x="549" />
<glyph unicode="&#x2003;" horiz-adv-x="1098" />
<glyph unicode="&#x2004;" horiz-adv-x="366" />
<glyph unicode="&#x2005;" horiz-adv-x="274" />
<glyph unicode="&#x2006;" horiz-adv-x="183" />
<glyph unicode="&#x2007;" horiz-adv-x="183" />
<glyph unicode="&#x2008;" horiz-adv-x="137" />
<glyph unicode="&#x2009;" horiz-adv-x="219" />
<glyph unicode="&#x200a;" horiz-adv-x="61" />
<glyph unicode="&#x2010;" horiz-adv-x="360" d="M50 294v30h260v-30h-260z" />
<glyph unicode="&#x2011;" horiz-adv-x="360" d="M50 294v30h260v-30h-260z" />
<glyph unicode="&#x2012;" horiz-adv-x="360" d="M50 294v30h260v-30h-260z" />
<glyph unicode="&#x2013;" horiz-adv-x="717" d="M50 294v30h617v-30h-617z" />
<glyph unicode="&#x2014;" horiz-adv-x="946" d="M50 294v30h846v-30h-846z" />
<glyph unicode="&#x2018;" horiz-adv-x="184" d="M62 524v85q0 71 47 88l10 -28q-27 -9 -27 -60v-25h30v-60h-60z" />
<glyph unicode="&#x2019;" horiz-adv-x="184" d="M62 640v60h60v-85q0 -71 -47 -88l-10 28q27 9 27 60v25h-30z" />
<glyph unicode="&#x201a;" horiz-adv-x="184" d="M62 70v60h60v-85q0 -71 -47 -88l-10 28q27 9 27 60v25h-30z" />
<glyph unicode="&#x201c;" horiz-adv-x="304" d="M62 524v85q0 71 47 88l10 -28q-27 -9 -27 -60v-25h30v-60h-60zM182 524v85q0 71 47 88l10 -28q-27 -9 -27 -60v-25h30v-60h-60z" />
<glyph unicode="&#x201d;" horiz-adv-x="304" d="M62 640v60h60v-85q0 -71 -47 -88l-10 28q27 9 27 60v25h-30zM182 640v60h60v-85q0 -71 -47 -88l-10 28q27 9 27 60v25h-30z" />
<glyph unicode="&#x201e;" horiz-adv-x="304" d="M62 70v60h60v-85q0 -71 -47 -88l-10 28q27 9 27 60v25h-30zM182 70v60h60v-85q0 -71 -47 -88l-10 28q27 9 27 60v25h-30z" />
<glyph unicode="&#x2020;" horiz-adv-x="553" d="M55 685v30h205v178h30v-178h208v-30h-208v-805h-30v805h-205z" />
<glyph unicode="&#x2021;" horiz-adv-x="553" d="M55 58v30h205v597h-205v30h205v178h30v-178h208v-30h-208v-597h208v-30h-208v-178h-30v178h-205z" />
<glyph unicode="&#x2022;" horiz-adv-x="260" d="M50 300q0 33 23.5 56.5t56.5 23.5t56.5 -23.5t23.5 -56.5t-23.5 -56.5t-56.5 -23.5t-56.5 23.5t-23.5 56.5z" />
<glyph unicode="&#x2026;" horiz-adv-x="612" d="M72 0v60h60v-60h-60zM276 0v60h60v-60h-60zM480 0v60h60v-60h-60z" />
<glyph unicode="&#x202f;" horiz-adv-x="219" />
<glyph unicode="&#x2030;" horiz-adv-x="701" d="M60 7l361 700l26 -14l-361 -700zM60 623q0 34 24 58t58 24t58 -24t24 -58t-24 -58t-58 -24t-58 24t-24 58zM90 623q0 -22 15 -37t37 -15t37 15t15 37t-15 37t-37 15t-37 -15t-15 -37zM283 76q0 34 24 58t58 24t58 -24t24 -58t-24 -58t-58 -24t-58 24t-24 58zM313 76 q0 -22 15 -37t37 -15t37 15t15 37t-15 37t-37 15t-37 -15t-15 -37zM487 76q0 34 24 58t58 24t58 -24t24 -58t-24 -58t-58 -24t-58 24t-24 58zM517 76q0 -22 15 -37t37 -15t37 15t15 37t-15 37t-37 15t-37 -15t-15 -37z" />
<glyph unicode="&#x2039;" horiz-adv-x="287" d="M50 270l169 132l18 -24l-137 -108l137 -107l-18 -24z" />
<glyph unicode="&#x203a;" horiz-adv-x="287" d="M50 163l137 107l-137 108l18 24l169 -132l-169 -131z" />
<glyph unicode="&#x205f;" horiz-adv-x="274" />
<glyph unicode="&#x20ac;" horiz-adv-x="547" d="M50 289v30h35q-1 10 -1 31q0 18 1 27h-35v30h38q17 126 104.5 211.5t231.5 85.5q40 0 73 -3l-2 -30q-33 3 -71 3q-130 0 -209 -76.5t-97 -190.5h272v-30h-275q-1 -9 -1 -27q0 -21 1 -31h275v-30h-271q18 -112 97 -187t207 -75q39 0 72 3l2 -30q-33 -3 -74 -3 q-142 0 -229 83.5t-106 208.5h-38z" />
<glyph unicode="&#x2117;" horiz-adv-x="850" d="M60 350q0 151 107 258t258 107t258 -107t107 -258t-107 -258t-258 -107t-258 107t-107 258zM90 350q0 -139 98 -237t237 -98t237 98t98 237t-98 237t-237 98t-237 -98t-98 -237zM336 160v385q11 1 31 1q91 0 139.5 -35.5t48.5 -87.5t-48.5 -87.5t-139.5 -35.5h-1v-140 h-30zM366 330h14q67 0 106 28t39 65t-39 65t-106 28h-14v-186z" />
<glyph unicode="&#x2122;" horiz-adv-x="617" d="M60 670v30h229v-30h-101v-200h-30v200h-98zM321 470v254l102 -190l102 190v-254h-30v135l-72 -135l-72 135v-135h-30z" />
<glyph unicode="&#x2212;" horiz-adv-x="460" d="M50 294v30h360v-30h-360z" />
<glyph unicode="&#xe000;" horiz-adv-x="545" d="M0 0v545h545v-545h-545z" />
<glyph unicode="&#xf628;" horiz-adv-x="681" d="M60 459q0 34 24 58t58 24t58 -24t24 -58t-24 -58t-58 -24t-58 24t-24 58zM62 8l337 536l26 -16l-337 -536zM90 459q0 -22 15 -37t37 -15t37 15t15 37t-15 37t-37 15t-37 -15t-15 -37zM263 76q0 34 24 58t58 24t58 -24t24 -58t-24 -58t-58 -24t-58 24t-24 58zM293 76 q0 -22 15 -37t37 -15t37 15t15 37t-15 37t-37 15t-37 -15t-15 -37zM467 76q0 34 24 58t58 24t58 -24t24 -58t-24 -58t-58 -24t-58 24t-24 58zM497 76q0 -22 15 -37t37 -15t37 15t15 37t-15 37t-37 15t-37 -15t-15 -37z" />
<glyph unicode="&#xf642;" horiz-adv-x="487" d="M60 459q0 34 24 58t58 24t58 -24t24 -58t-24 -58t-58 -24t-58 24t-24 58zM62 8l337 536l26 -16l-337 -536zM90 459q0 -22 15 -37t37 -15t37 15t15 37t-15 37t-37 15t-37 -15t-15 -37zM263 76q0 34 24 58t58 24t58 -24t24 -58t-24 -58t-58 -24t-58 24t-24 58zM293 76 q0 -22 15 -37t37 -15t37 15t15 37t-15 37t-37 15t-37 -15t-15 -37z" />
<glyph unicode="&#xf64e;" horiz-adv-x="537" d="M50 206v30h36q-2 10 -2 32q0 19 1 28h-35v30h40q22 94 108 156t225 62q31 0 64 -3l-2 -30q-33 3 -62 3q-124 0 -201.5 -53.5t-100.5 -134.5h269v-30h-275q-1 -9 -1 -28q0 -22 2 -32h274v-30h-267q23 -80 100.5 -131.5t199.5 -51.5q29 0 62 3l2 -30q-33 -3 -64 -3 q-137 0 -223 60.5t-109 152.5h-41z" />
<glyph unicode="&#xf652;" horiz-adv-x="553" d="M50 526l22 19l203 -253l206 255l22 -21l-213 -263v-30h145v-30h-145v-58h145v-30h-145v-115h-30v115h-145v30h145v58h-145v30h145v30z" />
<glyph unicode="&#xf653;" horiz-adv-x="472" d="M58 1l4 30q43 -7 86 -7q103 0 168.5 39t65.5 92q0 43 -37.5 75t-98.5 39l-40 5q-72 9 -109 41.5t-37 82.5q0 47 37 84.5t102 51.5v118h30v-113q22 2 36 2q19 0 55 -4l-4 -30q-36 4 -51 4q-79 0 -127 -33t-48 -80q0 -37 31.5 -61.5t88.5 -32.5l39 -5q77 -10 120 -48.5 t43 -95.5q0 -53 -50 -96t-133 -58v-112h-30v108q-24 -3 -51 -3q-47 0 -90 7z" />
<glyph unicode="&#xf66d;" horiz-adv-x="514" d="M63 6l207 551l207 -551l-27 -13l-45 116h-272l-43 -116zM144 139h249l-123 335zM151 720h30q0 -27 19 -43.5t51 -16.5t51 16.5t19 43.5h30q0 -38 -28 -64t-72 -26t-72 26t-28 64z" />
<glyph unicode="&#xf66e;" horiz-adv-x="514" d="M63 6l207 551l207 -551l-27 -13l-45 116h-272l-43 -116zM121 660v30h260v-30h-260zM144 139h249l-123 335z" />
<glyph unicode="&#xf66f;" horiz-adv-x="514" d="M50 6l201 551l213 -551l-13 -6l7 -12q-46 -24 -46 -47q0 -17 21 -17q13 0 30 11l16 -26q-24 -15 -46 -15q-23 0 -37 13t-14 34q0 37 49 66l-39 102h-274l-41 -114zM129 139h251l-129 335z" />
<glyph unicode="&#xf670;" horiz-adv-x="748" d="M50 8l347 528h296v-30h-266v-182h200v-30h-200v-264h266v-30h-296v131h-229l-92 -139zM188 161h209v319zM394 632l151 109l18 -24l-151 -109z" />
<glyph unicode="&#xf671;" horiz-adv-x="503" d="M50 268q0 112 89.5 194t249.5 82q31 0 64 -3l-2 -30q-33 3 -62 3q-146 0 -227.5 -73.5t-81.5 -172.5t81.5 -172t227.5 -73q29 0 62 3l2 -30q-33 -3 -64 -3q-160 0 -249.5 81.5t-89.5 193.5zM221 632l151 109l18 -24l-151 -109z" />
<glyph unicode="&#xf672;" horiz-adv-x="503" d="M50 268q0 112 89.5 194t249.5 82q31 0 64 -3l-2 -30q-33 3 -62 3q-146 0 -227.5 -73.5t-81.5 -172.5t81.5 -172t227.5 -73q29 0 62 3l2 -30q-33 -3 -64 -3q-160 0 -249.5 81.5t-89.5 193.5zM210 723l24 18l65 -83l66 83l24 -18l-90 -115z" />
<glyph unicode="&#xf673;" horiz-adv-x="503" d="M50 268q0 112 89.5 194t249.5 82q31 0 64 -3l-2 -30q-33 3 -62 3q-146 0 -227.5 -73.5t-81.5 -172.5t81.5 -172t227.5 -73q29 0 62 3l2 -30q-33 -3 -64 -3q-160 0 -249.5 81.5t-89.5 193.5zM207 626l89 115l90 -115l-24 -18l-66 83l-65 -83z" />
<glyph unicode="&#xf674;" horiz-adv-x="503" d="M50 268q0 112 89.5 194t249.5 82q31 0 64 -3l-2 -30q-33 3 -62 3q-146 0 -227.5 -73.5t-81.5 -172.5t81.5 -172t227.5 -73q29 0 62 3l2 -30q-33 -3 -64 -3q-160 0 -249.5 81.5t-89.5 193.5zM281 650v50h50v-50h-50z" />
<glyph unicode="&#xf675;" horiz-adv-x="532" d="M66 0v540q52 4 77 4q160 0 249.5 -81t89.5 -193q0 -111 -89.5 -192t-249.5 -81q-38 0 -77 3zM96 28q17 -1 47 -1q146 0 227.5 72t81.5 171t-81.5 171.5t-227.5 72.5q-15 0 -47 -2v-484zM121 723l24 18l65 -83l66 83l24 -18l-90 -115z" />
<glyph unicode="&#xf676;" horiz-adv-x="546" d="M-15 270v30h95v240q52 4 77 4q160 0 249.5 -81t89.5 -193q0 -111 -89.5 -192t-249.5 -81q-38 0 -77 3v270h-95zM110 28q17 -1 47 -1q146 0 227.5 72t81.5 171t-81.5 171.5t-227.5 72.5q-15 0 -47 -2v-212h135v-30h-135v-242z" />
<glyph unicode="&#xf677;" horiz-adv-x="517" d="M66 0v536h396v-30h-366v-182h300v-30h-300v-264h366v-30h-396zM164 720h30q0 -27 19 -43.5t51 -16.5t51 16.5t19 43.5h30q0 -38 -28 -64t-72 -26t-72 26t-28 64z" />
<glyph unicode="&#xf678;" horiz-adv-x="517" d="M66 0v536h396v-30h-366v-182h300v-30h-300v-264h366v-30h-396zM175 723l24 18l65 -83l66 83l24 -18l-90 -115z" />
<glyph unicode="&#xf679;" horiz-adv-x="517" d="M66 0v536h396v-30h-366v-182h300v-30h-300v-264h366v-30h-396zM239 650v50h50v-50h-50z" />
<glyph unicode="&#xf67a;" horiz-adv-x="517" d="M66 0v536h396v-30h-366v-182h300v-30h-300v-264h366v-30h-396zM134 660v30h260v-30h-260z" />
<glyph unicode="&#xf67c;" horiz-adv-x="517" d="M66 0v536h396v-30h-366v-182h300v-30h-300v-264h366v-30h-81l7 -12q-46 -24 -46 -47q0 -17 21 -17q13 0 30 11l16 -26q-24 -15 -46 -15q-23 0 -37 13t-14 34q0 34 38 59h-284z" />
<glyph unicode="&#xf67d;" horiz-adv-x="513" d="M50 270q0 112 89 193t250 81q31 0 64 -3v-30q-30 3 -64 3q-147 0 -228 -72.5t-81 -171.5t81.5 -171t227.5 -72q21 0 34 1v198h30v-226q-33 -3 -64 -3q-160 0 -249.5 81t-89.5 192zM215 720h30q0 -27 19 -43.5t51 -16.5t51 16.5t19 43.5h30q0 -38 -28 -64t-72 -26t-72 26 t-28 64z" />
<glyph unicode="&#xf67e;" horiz-adv-x="513" d="M50 270q0 112 89 193t250 81q31 0 64 -3v-30q-30 3 -64 3q-147 0 -228 -72.5t-81 -171.5t81.5 -171t227.5 -72q21 0 34 1v198h30v-226q-33 -3 -64 -3q-160 0 -249.5 81t-89.5 192zM226 626l89 115l90 -115l-24 -18l-66 83l-65 -83z" />
<glyph unicode="&#xf67f;" horiz-adv-x="513" d="M50 270q0 112 89 193t250 81q31 0 64 -3v-30q-30 3 -64 3q-147 0 -228 -72.5t-81 -171.5t81.5 -171t227.5 -72q21 0 34 1v198h30v-226q-33 -3 -64 -3q-160 0 -249.5 81t-89.5 192zM315 -50h60v-70q0 -58 -47 -75l-10 28q27 9 27 47v15h-30v55z" />
<glyph unicode="&#xf680;" horiz-adv-x="513" d="M50 270q0 112 89 193t250 81q31 0 64 -3v-30q-30 3 -64 3q-147 0 -228 -72.5t-81 -171.5t81.5 -171t227.5 -72q21 0 34 1v198h30v-226q-33 -3 -64 -3q-160 0 -249.5 81t-89.5 192zM290 650v50h50v-50h-50z" />
<glyph unicode="&#xf681;" horiz-adv-x="528" d="M4 446v30h62v60h30v-60h336v60h30v-60h62v-30h-62v-446h-30v294h-336v-294h-30v446h-62zM96 324h336v122h-336v-122z" />
<glyph unicode="&#xf682;" horiz-adv-x="528" d="M66 0v536h30v-212h336v212h30v-536h-30v294h-336v-294h-30zM175 626l89 115l90 -115l-24 -18l-66 83l-65 -83z" />
<glyph unicode="&#xf683;" d="M-15 720h30q0 -27 19 -43.5t51 -16.5t51 16.5t19 43.5h30q0 -38 -28 -64t-72 -26t-72 26t-28 64zM70 0v536h30v-536h-30z" />
<glyph unicode="&#xf684;" horiz-adv-x="623" d="M70 0v536h30v-536h-30zM215 58l21 23q66 -61 127 -61q60 0 102.5 38.5t57.5 95.5q10 36 10 78v304h30v-313q0 -99 -56.5 -166t-143.5 -67q-80 0 -148 68z" />
<glyph unicode="&#xf685;" d="M-45 660v30h260v-30h-260zM70 0v536h30v-536h-30z" />
<glyph unicode="&#xf686;" d="M22 -59q0 38 48 65v530h30v-536h-9l7 -12q-46 -24 -46 -47q0 -17 21 -17q13 0 30 11l16 -26q-24 -15 -46 -15q-23 0 -37 13t-14 34z" />
<glyph unicode="&#xf687;" d="M-33 661q25 47 70 47q29 0 57 -22q19 -15 38 -15q30 0 47 35l24 -18q-26 -47 -71 -47q-28 0 -56 21q-21 16 -39 16q-30 0 -46 -35zM70 0v536h30v-536h-30z" />
<glyph unicode="&#xf688;" horiz-adv-x="458" d="M50 58l21 23q66 -61 127 -61q60 0 102.5 38.5t57.5 95.5q10 36 10 78v304h30v-313q0 -99 -56.5 -166t-143.5 -67q-80 0 -148 68zM294 626l89 115l90 -115l-24 -18l-66 83l-65 -83z" />
<glyph unicode="&#xf689;" horiz-adv-x="570" d="M66 0v536h30v-288l406 299l18 -24l-334 -247l334 -263l-18 -24l-341 269l-65 -48v-210h-30zM263 -50h60v-70q0 -58 -47 -75l-10 28q27 9 27 47v15h-30v55z" />
<glyph unicode="&#xf68a;" horiz-adv-x="474" d="M12 632l151 109l18 -24l-151 -109zM66 0v536h30v-506h328v-30h-358z" />
<glyph unicode="&#xf68b;" horiz-adv-x="474" d="M66 0v536h30v-506h328v-30h-358zM156 481v55h60v-70q0 -58 -47 -75l-10 28q27 9 27 47v15h-30z" />
<glyph unicode="&#xf68c;" horiz-adv-x="474" d="M66 0v536h30v-506h328v-30h-358zM215 -50h60v-70q0 -58 -47 -75l-10 28q27 9 27 47v15h-30v55z" />
<glyph unicode="&#xf68d;" horiz-adv-x="474" d="M66 0v536h30v-506h328v-30h-358zM217 285v50h50v-50h-50z" />
<glyph unicode="&#xf68e;" horiz-adv-x="549" d="M66 0v559l387 -496v473h30v-559l-387 496v-473h-30zM190 632l151 109l18 -24l-151 -109z" />
<glyph unicode="&#xf68f;" horiz-adv-x="549" d="M66 0v559l387 -496v473h30v-559l-387 496v-473h-30zM185 723l24 18l65 -83l66 83l24 -18l-90 -115z" />
<glyph unicode="&#xf690;" horiz-adv-x="549" d="M66 0v559l387 -496v473h30v-559l-387 496v-473h-30zM244 -50h60v-70q0 -58 -47 -75l-10 28q27 9 27 47v15h-30v55z" />
<glyph unicode="&#xf691;" horiz-adv-x="656" d="M50 268q0 115 81.5 196.5t196.5 81.5t196.5 -81.5t81.5 -196.5t-81.5 -196.5t-196.5 -81.5t-196.5 81.5t-81.5 196.5zM80 268q0 -103 72.5 -175.5t175.5 -72.5t175.5 72.5t72.5 175.5t-72.5 175.5t-175.5 72.5t-175.5 -72.5t-72.5 -175.5zM228 720h30q0 -27 19 -43.5 t51 -16.5t51 16.5t19 43.5h30q0 -38 -28 -64t-72 -26t-72 26t-28 64z" />
<glyph unicode="&#xf692;" horiz-adv-x="656" d="M50 268q0 115 81.5 196.5t196.5 81.5t196.5 -81.5t81.5 -196.5t-81.5 -196.5t-196.5 -81.5t-196.5 81.5t-81.5 196.5zM80 268q0 -103 72.5 -175.5t175.5 -72.5t175.5 72.5t72.5 175.5t-72.5 175.5t-175.5 72.5t-175.5 -72.5t-72.5 -175.5zM207 632l151 109l18 -24 l-151 -109zM329 632l151 109l18 -24l-151 -109z" />
<glyph unicode="&#xf693;" horiz-adv-x="656" d="M50 268q0 115 81.5 196.5t196.5 81.5t196.5 -81.5t81.5 -196.5t-81.5 -196.5t-196.5 -81.5t-196.5 81.5t-81.5 196.5zM80 268q0 -103 72.5 -175.5t175.5 -72.5t175.5 72.5t72.5 175.5t-72.5 175.5t-175.5 72.5t-175.5 -72.5t-72.5 -175.5zM198 660v30h260v-30h-260z" />
<glyph unicode="&#xf694;" horiz-adv-x="656" d="M50 11l71 71q-71 81 -71 186q0 115 81.5 196.5t196.5 81.5q105 0 184 -71l72 72l22 -22l-72 -72q72 -78 72 -185q0 -115 -81.5 -196.5t-196.5 -81.5q-107 0 -185 70l-71 -71zM80 268q0 -95 62 -165l350 351q-70 62 -164 62q-103 0 -175.5 -72.5t-72.5 -175.5zM164 81 q71 -61 164 -61q103 0 175.5 72.5t72.5 175.5q0 92 -62 164zM244 632l151 109l18 -24l-151 -109z" />
<glyph unicode="&#xf695;" horiz-adv-x="428" d="M66 0v537q22 3 53 3q115 0 179 -48t64 -121q0 -64 -43 -102.5t-94 -51.5l158 -208l-25 -16l-166 217q-39 -6 -73 -6q-15 0 -23 1v-205h-30zM96 235q7 -1 23 -1q87 0 150 35t63 102q0 60 -54.5 99.5t-158.5 39.5q-16 0 -23 -1v-274zM114 632l151 109l18 -24l-151 -109z " />
<glyph unicode="&#xf696;" horiz-adv-x="428" d="M66 0v537q22 3 53 3q115 0 179 -48t64 -121q0 -64 -43 -102.5t-94 -51.5l158 -208l-25 -16l-166 217q-39 -6 -73 -6q-15 0 -23 1v-205h-30zM82 723l24 18l65 -83l66 83l24 -18l-90 -115zM96 235q7 -1 23 -1q87 0 150 35t63 102q0 60 -54.5 99.5t-158.5 39.5q-16 0 -23 -1 v-274z" />
<glyph unicode="&#xf697;" horiz-adv-x="428" d="M66 0v537q22 3 53 3q115 0 179 -48t64 -121q0 -64 -43 -102.5t-94 -51.5l158 -208l-25 -16l-166 217q-39 -6 -73 -6q-15 0 -23 1v-205h-30zM96 235q7 -1 23 -1q87 0 150 35t63 102q0 60 -54.5 99.5t-158.5 39.5q-16 0 -23 -1v-274zM194 -50h60v-70q0 -58 -47 -75l-10 28 q27 9 27 47v15h-30v55z" />
<glyph unicode="&#xf698;" horiz-adv-x="510" d="M52 380q0 79 60.5 121t147.5 42q66 0 119.5 -29.5t74.5 -85.5l-27 -12q-20 48 -65 72.5t-102 24.5q-79 0 -128.5 -34.5t-49.5 -98.5q0 -25 13.5 -42.5t42.5 -28t52 -15.5t65 -11q103 -16 137 -31q66 -30 66 -96q0 -80 -58.5 -121.5t-149.5 -41.5q-143 0 -193 112l28 13 q43 -95 165 -95q76 0 127 35t51 98q0 24 -13 41.5t-41.5 28t-46.5 14.5t-55 10l-18 3q-97 16 -129 30q-73 30 -73 97zM171 632l151 109l18 -24l-151 -109z" />
<glyph unicode="&#xf699;" horiz-adv-x="510" d="M52 380q0 79 60.5 121t147.5 42q66 0 119.5 -29.5t74.5 -85.5l-27 -12q-20 48 -65 72.5t-102 24.5q-79 0 -128.5 -34.5t-49.5 -98.5q0 -25 13.5 -42.5t42.5 -28t52 -15.5t65 -11q103 -16 137 -31q66 -30 66 -96q0 -74 -50.5 -115t-132.5 -47l-4 -17q36 -7 36 -41 q0 -25 -18 -37.5t-43 -12.5q-17 0 -32 6l10 28q9 -4 23 -4q30 0 30 20q0 10 -32 10h-13l11 47q-138 3 -186 112l28 13q43 -95 165 -95q76 0 127 35t51 98q0 24 -13 41.5t-41.5 28t-46.5 14.5t-55 10l-18 3q-97 16 -129 30q-73 30 -73 97z" />
<glyph unicode="&#xf69a;" horiz-adv-x="510" d="M52 380q0 79 60.5 121t147.5 42q66 0 119.5 -29.5t74.5 -85.5l-27 -12q-20 48 -65 72.5t-102 24.5q-79 0 -128.5 -34.5t-49.5 -98.5q0 -25 13.5 -42.5t42.5 -28t52 -15.5t65 -11q103 -16 137 -31q66 -30 66 -96q0 -80 -58.5 -121.5t-149.5 -41.5q-143 0 -193 112l28 13 q43 -95 165 -95q76 0 127 35t51 98q0 24 -13 41.5t-41.5 28t-46.5 14.5t-55 10l-18 3q-97 16 -129 30q-73 30 -73 97zM166 626l89 115l90 -115l-24 -18l-66 83l-65 -83z" />
<glyph unicode="&#xf69b;" horiz-adv-x="510" d="M52 380q0 79 60.5 121t147.5 42q66 0 119.5 -29.5t74.5 -85.5l-27 -12q-20 48 -65 72.5t-102 24.5q-79 0 -128.5 -34.5t-49.5 -98.5q0 -25 13.5 -42.5t42.5 -28t52 -15.5t65 -11q103 -16 137 -31q66 -30 66 -96q0 -80 -58.5 -121.5t-149.5 -41.5q-143 0 -193 112l28 13 q43 -95 165 -95q76 0 127 35t51 98q0 24 -13 41.5t-41.5 28t-46.5 14.5t-55 10l-18 3q-97 16 -129 30q-73 30 -73 97zM225 -50h60v-70q0 -58 -47 -75l-10 28q27 9 27 47v15h-30v55z" />
<glyph unicode="&#xf69c;" horiz-adv-x="526" d="M50 506v30h426v-30h-198v-181h115v-30h-115v-295h-30v295h-115v30h115v181h-198z" />
<glyph unicode="&#xf69d;" horiz-adv-x="526" d="M50 506v30h426v-30h-198v-506h-30v506h-198zM174 723l24 18l65 -83l66 83l24 -18l-90 -115z" />
<glyph unicode="&#xf69e;" horiz-adv-x="526" d="M50 506v30h426v-30h-198v-506h-30v506h-198zM233 -50h60v-70q0 -58 -47 -75l-10 28q27 9 27 47v15h-30v55z" />
<glyph unicode="&#xf69f;" horiz-adv-x="538" d="M60 193v343h30v-343q0 -75 52 -124t127 -49t127 49t52 124v343h30v-343q0 -91 -61 -147t-148 -56t-148 57t-61 146zM169 720h30q0 -27 19 -43.5t51 -16.5t51 16.5t19 43.5h30q0 -38 -28 -64t-72 -26t-72 26t-28 64z" />
<glyph unicode="&#xf6a0;" horiz-adv-x="538" d="M60 193v343h30v-343q0 -75 52 -124t127 -49t127 49t52 124v343h30v-343q0 -91 -61 -147t-148 -56t-148 57t-61 146zM154 632l151 109l18 -24l-151 -109zM276 632l151 109l18 -24l-151 -109z" />
<glyph unicode="&#xf6a1;" horiz-adv-x="538" d="M60 193v343h30v-343q0 -75 52 -124t127 -49t127 49t52 124v343h30v-343q0 -91 -61 -147t-148 -56t-148 57t-61 146zM139 660v30h260v-30h-260z" />
<glyph unicode="&#xf6a2;" horiz-adv-x="538" d="M60 193v343h30v-343q0 -75 52 -124t127 -49t127 49t52 124v343h30v-343q0 -85 -55 -140.5t-136 -61.5l9 -16q-46 -24 -46 -47q0 -17 21 -17q13 0 30 11l16 -26q-24 -15 -46 -15q-23 0 -37 13t-14 34q0 35 42 62q-85 2 -143.5 59t-58.5 144z" />
<glyph unicode="&#xf6a3;" horiz-adv-x="538" d="M60 193v343h30v-343q0 -75 52 -124t127 -49t127 49t52 124v343h30v-343q0 -91 -61 -147t-148 -56t-148 57t-61 146zM202 675q0 28 19.5 47.5t47.5 19.5t47.5 -19.5t19.5 -47.5t-19.5 -47.5t-47.5 -19.5t-47.5 19.5t-19.5 47.5zM232 675q0 -15 11 -26t26 -11t26 11t11 26 t-11 26t-26 11t-26 -11t-11 -26z" />
<glyph unicode="&#xf6a4;" horiz-adv-x="538" d="M60 193v343h30v-343q0 -75 52 -124t127 -49t127 49t52 124v343h30v-343q0 -91 -61 -147t-148 -56t-148 57t-61 146zM151 661q25 47 70 47q29 0 57 -22q19 -15 38 -15q30 0 47 35l24 -18q-26 -47 -71 -47q-28 0 -56 21q-21 16 -39 16q-30 0 -46 -35z" />
<glyph unicode="&#xf6a5;" horiz-adv-x="778" d="M50 531l28 10l185 -479l110 285l-71 184l28 10l59 -153l59 153l28 -10l-71 -184l110 -285l185 479l28 -10l-213 -551l-126 326l-126 -326zM305 632l151 109l18 -24l-151 -109z" />
<glyph unicode="&#xf6a6;" horiz-adv-x="778" d="M50 531l28 10l185 -479l110 285l-71 184l28 10l59 -153l59 153l28 -10l-71 -184l110 -285l185 479l28 -10l-213 -551l-126 326l-126 -326zM300 626l89 115l90 -115l-24 -18l-66 83l-65 -83z" />
<glyph unicode="&#xf6a7;" horiz-adv-x="778" d="M50 531l28 10l185 -479l110 285l-71 184l28 10l59 -153l59 153l28 -10l-71 -184l110 -285l185 479l28 -10l-213 -551l-126 326l-126 -326zM297 650v50h50v-50h-50zM432 650v50h50v-50h-50z" />
<glyph unicode="&#xf6a8;" horiz-adv-x="778" d="M50 531l28 10l185 -479l110 285l-71 184l28 10l59 -153l59 153l28 -10l-71 -184l110 -285l185 479l28 -10l-213 -551l-126 326l-126 -326zM305 717l18 24l151 -109l-18 -24z" />
<glyph unicode="&#xf6a9;" horiz-adv-x="553" d="M50 526l22 19l203 -253l206 255l22 -21l-213 -263v-263h-30v263zM186 626l89 115l90 -115l-24 -18l-66 83l-65 -83z" />
<glyph unicode="&#xf6aa;" horiz-adv-x="553" d="M50 526l22 19l203 -253l206 255l22 -21l-213 -263v-263h-30v263zM191 717l18 24l151 -109l-18 -24z" />
<glyph unicode="&#xf6ab;" horiz-adv-x="534" d="M46 0l381 506h-377v30h438l-381 -506h377v-30h-438zM183 632l151 109l18 -24l-151 -109z" />
<glyph unicode="&#xf6ac;" horiz-adv-x="534" d="M46 0l381 506h-377v30h438l-381 -506h377v-30h-438zM242 650v50h50v-50h-50z" />
<glyph unicode="&#xf6ad;" d="M60 650v50h50v-50h-50zM70 0v536h30v-536h-30z" />
<glyph unicode="&#xf6b4;" d="M55 640v60h60v-60h-60zM70 0v536h30v-536h-30z" />
<glyph unicode="&#xf6b5;" horiz-adv-x="502" d="M50 172q0 112 116 172q41 21 62 46t21 65v81h30v-81q0 -88 -96 -137q-35 -20 -52.5 -33.5t-34 -43t-16.5 -69.5q0 -71 54 -114t125 -43q116 0 166 99l27 -12q-58 -117 -192 -117q-82 0 -146 49.5t-64 137.5zM234 640v60h60v-60h-60z" />
<glyph unicode="&#xf6be;" d="M-122 -232l26 14q26 -45 72 -45q40 0 67 34.5t27 94.5v670h30v-670q0 -73 -35.5 -116t-88.5 -43q-64 0 -98 61z" />
<glyph unicode="&#xf6c3;" horiz-adv-x="180" d="M60 -50h60v-70q0 -58 -47 -75l-10 28q27 9 27 47v15h-30v55z" />
<glyph unicode="&#xf6f9;" horiz-adv-x="474" d="M-3 303l69 50v183h30v-162l71 51l18 -24l-89 -64v-307h328v-30h-358v316l-51 -37z" />
<glyph unicode="&#xf6fa;" horiz-adv-x="1030" d="M50 268q0 117 82.5 200t199.5 83q81 0 148.5 -43t103.5 -113v141h396v-30h-366v-182h300v-30h-300v-264h366v-30h-396v141q-36 -71 -103.5 -113.5t-148.5 -42.5q-117 0 -199.5 83t-82.5 200zM80 268q0 -105 74 -179t178 -74t178 74t74 179t-74 179t-178 74t-178 -74 t-74 -179z" />
<glyph unicode="&#xf6fd;" horiz-adv-x="510" d="M52 380q0 79 60.5 121t147.5 42q66 0 119.5 -29.5t74.5 -85.5l-27 -12q-20 48 -65 72.5t-102 24.5q-79 0 -128.5 -34.5t-49.5 -98.5q0 -25 13.5 -42.5t42.5 -28t52 -15.5t65 -11q103 -16 137 -31q66 -30 66 -96q0 -80 -58.5 -121.5t-149.5 -41.5q-143 0 -193 112l28 13 q43 -95 165 -95q76 0 127 35t51 98q0 24 -13 41.5t-41.5 28t-46.5 14.5t-55 10l-18 3q-97 16 -129 30q-73 30 -73 97zM166 723l24 18l65 -83l66 83l24 -18l-90 -115z" />
<glyph unicode="&#xf6ff;" horiz-adv-x="534" d="M46 0l381 506h-377v30h438l-381 -506h377v-30h-438zM178 723l24 18l65 -83l66 83l24 -18l-90 -115z" />
<glyph unicode="&#xf721;" d="M55 0v60h60v-60h-60zM70 164v372h30v-372h-30z" />
<glyph unicode="&#xf726;" horiz-adv-x="451" d="M55 153q0 46 34 85t98 58q-79 36 -79 113q0 53 45 92.5t125 39.5q12 0 36 -2l-2 -30q-24 2 -34 2q-66 0 -103 -30.5t-37 -71.5q0 -40 35.5 -69.5t97.5 -29.5h52v47h30v-47h48v-30h-48v-279q-31 -3 -62 -3q-112 0 -174 46t-62 109zM85 153q0 -51 54 -88t152 -37q22 0 32 1 v251h-41q-91 0 -144 -39.5t-53 -87.5z" />
<glyph unicode="&#xf73f;" horiz-adv-x="387" d="M50 468q41 83 137 83q59 0 104.5 -36t45.5 -98q0 -45 -21 -72.5t-63 -50.5q-54 -30 -54 -74v-56h-30v56q0 60 70 100q33 19 50.5 40.5t17.5 56.5q0 48 -36.5 76t-83.5 28q-78 0 -111 -67zM154 0v60h60v-60h-60z" />
<glyph unicode="&#xf761;" horiz-adv-x="514" d="M50 6l207 551l207 -551l-27 -13l-45 116h-272l-43 -116zM131 139h249l-123 335z" />
<glyph unicode="&#xf762;" horiz-adv-x="414" d="M66 0v536q36 4 49 4q66 0 118.5 -34t52.5 -99q0 -35 -21 -64.5t-53 -44.5q67 -14 109.5 -55t42.5 -93q0 -71 -70.5 -113t-170.5 -42q-36 0 -57 5zM96 27q11 -2 36 -2q77 0 139.5 34.5t62.5 88.5q0 29 -19.5 57t-53.5 45q-55 28 -165 28v-251zM96 309q8 -2 26 -2 q51 0 92.5 28t41.5 72q0 47 -42.5 75t-100.5 28q-10 0 -17 -1v-200z" />
<glyph unicode="&#xf763;" horiz-adv-x="503" d="M50 268q0 112 89.5 194t249.5 82q31 0 64 -3l-2 -30q-33 3 -62 3q-146 0 -227.5 -73.5t-81.5 -172.5t81.5 -172t227.5 -73q29 0 62 3l2 -30q-33 -3 -64 -3q-160 0 -249.5 81.5t-89.5 193.5z" />
<glyph unicode="&#xf764;" horiz-adv-x="532" d="M66 0v540q52 4 77 4q160 0 249.5 -81t89.5 -193q0 -111 -89.5 -192t-249.5 -81q-38 0 -77 3zM96 28q17 -1 47 -1q146 0 227.5 72t81.5 171t-81.5 171.5t-227.5 72.5q-15 0 -47 -2v-484z" />
<glyph unicode="&#xf765;" horiz-adv-x="517" d="M66 0v536h396v-30h-366v-182h300v-30h-300v-264h366v-30h-396z" />
<glyph unicode="&#xf766;" horiz-adv-x="512" d="M66 0v536h396v-30h-366v-182h300v-30h-300v-294h-30z" />
<glyph unicode="&#xf767;" horiz-adv-x="513" d="M50 270q0 112 89 193t250 81q31 0 64 -3v-30q-30 3 -64 3q-147 0 -228 -72.5t-81 -171.5t81.5 -171t227.5 -72q21 0 34 1v198h30v-226q-33 -3 -64 -3q-160 0 -249.5 81t-89.5 192z" />
<glyph unicode="&#xf768;" horiz-adv-x="528" d="M66 0v536h30v-212h336v212h30v-536h-30v294h-336v-294h-30z" />
<glyph unicode="&#xf769;" d="M70 0v536h30v-536h-30z" />
<glyph unicode="&#xf76a;" horiz-adv-x="453" d="M45 58l21 23q66 -61 127 -61q60 0 102.5 38.5t57.5 95.5q10 36 10 78v304h30v-313q0 -99 -56.5 -166t-143.5 -67q-80 0 -148 68z" />
<glyph unicode="&#xf76b;" horiz-adv-x="570" d="M66 0v536h30v-288l406 299l18 -24l-334 -247l334 -263l-18 -24l-341 269l-65 -48v-210h-30z" />
<glyph unicode="&#xf76c;" horiz-adv-x="474" d="M66 0v536h30v-506h328v-30h-358z" />
<glyph unicode="&#xf76d;" horiz-adv-x="648" d="M66 0v560l258 -483l258 483v-560h-30v441l-228 -428l-228 428v-441h-30z" />
<glyph unicode="&#xf76e;" horiz-adv-x="549" d="M66 0v559l387 -496v473h30v-559l-387 496v-473h-30z" />
<glyph unicode="&#xf76f;" horiz-adv-x="656" d="M50 268q0 115 81.5 196.5t196.5 81.5t196.5 -81.5t81.5 -196.5t-81.5 -196.5t-196.5 -81.5t-196.5 81.5t-81.5 196.5zM80 268q0 -103 72.5 -175.5t175.5 -72.5t175.5 72.5t72.5 175.5t-72.5 175.5t-175.5 72.5t-175.5 -72.5t-72.5 -175.5z" />
<glyph unicode="&#xf770;" horiz-adv-x="412" d="M66 0v537q22 3 53 3q115 0 179 -48t64 -121t-64 -120t-179 -47q-15 0 -23 1v-205h-30zM96 235q7 -1 23 -1q87 0 150 35t63 102q0 60 -54.5 99.5t-158.5 39.5q-16 0 -23 -1v-274z" />
<glyph unicode="&#xf771;" horiz-adv-x="656" d="M50 268q0 115 81.5 196.5t196.5 81.5t196.5 -81.5t81.5 -196.5q0 -109 -74 -188l69 -69q-16 -14 -22 -20l-68 68q-79 -69 -183 -69q-115 0 -196.5 81.5t-81.5 196.5zM80 268q0 -103 72.5 -175.5t175.5 -72.5q93 0 162 60l-66 66l22 20l65 -65q65 71 65 167 q0 103 -72.5 175.5t-175.5 72.5t-175.5 -72.5t-72.5 -175.5z" />
<glyph unicode="&#xf772;" horiz-adv-x="428" d="M66 0v537q22 3 53 3q115 0 179 -48t64 -121q0 -64 -43 -102.5t-94 -51.5l158 -208l-25 -16l-166 217q-39 -6 -73 -6q-15 0 -23 1v-205h-30zM96 235q7 -1 23 -1q87 0 150 35t63 102q0 60 -54.5 99.5t-158.5 39.5q-16 0 -23 -1v-274z" />
<glyph unicode="&#xf773;" horiz-adv-x="510" d="M52 380q0 79 60.5 121t147.5 42q66 0 119.5 -29.5t74.5 -85.5l-27 -12q-20 48 -65 72.5t-102 24.5q-79 0 -128.5 -34.5t-49.5 -98.5q0 -25 13.5 -42.5t42.5 -28t52 -15.5t65 -11q103 -16 137 -31q66 -30 66 -96q0 -80 -58.5 -121.5t-149.5 -41.5q-143 0 -193 112l28 13 q43 -95 165 -95q76 0 127 35t51 98q0 24 -13 41.5t-41.5 28t-46.5 14.5t-55 10l-18 3q-97 16 -129 30q-73 30 -73 97z" />
<glyph unicode="&#xf774;" horiz-adv-x="526" d="M50 506v30h426v-30h-198v-506h-30v506h-198z" />
<glyph unicode="&#xf775;" horiz-adv-x="538" d="M60 193v343h30v-343q0 -75 52 -124t127 -49t127 49t52 124v343h30v-343q0 -91 -61 -147t-148 -56t-148 57t-61 146z" />
<glyph unicode="&#xf776;" horiz-adv-x="526" d="M50 531l28 10l185 -479l185 479l28 -10l-213 -551z" />
<glyph unicode="&#xf777;" horiz-adv-x="778" d="M50 531l28 10l185 -479l110 285l-71 184l28 10l59 -153l59 153l28 -10l-71 -184l110 -285l185 479l28 -10l-213 -551l-126 326l-126 -326z" />
<glyph unicode="&#xf778;" horiz-adv-x="554" d="M50 9l208 259l-208 259l24 18l203 -253l203 253l24 -18l-208 -259l208 -259l-24 -18l-203 252l-203 -252z" />
<glyph unicode="&#xf779;" horiz-adv-x="553" d="M50 526l22 19l203 -253l206 255l22 -21l-213 -263v-263h-30v263z" />
<glyph unicode="&#xf77a;" horiz-adv-x="534" d="M46 0l381 506h-377v30h438l-381 -506h377v-30h-438z" />
<glyph unicode="&#xf7a1;" d="M55 476v60h60v-60h-60zM70 0v372h30v-372h-30z" />
<glyph unicode="&#xf7bf;" horiz-adv-x="387" d="M49 119q0 45 21 72.5t63 50.5q54 30 54 74v56h30v-56q0 -60 -70 -100q-33 -19 -50.5 -40.5t-17.5 -56.5q0 -48 36.5 -76t83.5 -28q78 0 111 67l26 -14q-41 -83 -137 -83q-59 0 -104.5 36t-45.5 98zM172 476v60h60v-60h-60z" />
<glyph unicode="&#xf7e0;" horiz-adv-x="514" d="M63 6l207 551l207 -551l-27 -13l-45 116h-272l-43 -116zM144 139h249l-123 335zM167 717l18 24l151 -109l-18 -24z" />
<glyph unicode="&#xf7e1;" horiz-adv-x="514" d="M63 6l207 551l207 -551l-27 -13l-45 116h-272l-43 -116zM144 139h249l-123 335zM187 632l151 109l18 -24l-151 -109z" />
<glyph unicode="&#xf7e2;" horiz-adv-x="514" d="M63 6l207 551l207 -551l-27 -13l-45 116h-272l-43 -116zM144 139h249l-123 335zM162 626l89 115l90 -115l-24 -18l-66 83l-65 -83z" />
<glyph unicode="&#xf7e3;" horiz-adv-x="514" d="M63 6l207 551l207 -551l-27 -13l-45 116h-272l-43 -116zM133 661q25 47 70 47q29 0 57 -22q20 -15 38 -15q30 0 47 35l24 -18q-26 -47 -71 -47q-28 0 -56 21q-21 16 -39 16q-30 0 -46 -35zM144 139h249l-123 335z" />
<glyph unicode="&#xf7e4;" horiz-adv-x="514" d="M63 6l207 551l207 -551l-27 -13l-45 116h-272l-43 -116zM144 139h249l-123 335zM159 650v50h50v-50h-50zM294 650v50h50v-50h-50z" />
<glyph unicode="&#xf7e5;" horiz-adv-x="514" d="M63 6l207 551l207 -551l-27 -13l-45 116h-272l-43 -116zM144 139h249l-123 335zM184 675q0 28 19.5 47.5t47.5 19.5t47.5 -19.5t19.5 -47.5t-19.5 -47.5t-47.5 -19.5t-47.5 19.5t-19.5 47.5zM214 675q0 -15 11 -26t26 -11t26 11t11 26t-11 26t-26 11t-26 -11t-11 -26z " />
<glyph unicode="&#xf7e6;" horiz-adv-x="748" d="M50 8l347 528h296v-30h-266v-182h200v-30h-200v-264h266v-30h-296v131h-229l-92 -139zM188 161h209v319z" />
<glyph unicode="&#xf7e7;" horiz-adv-x="503" d="M50 270q0 112 89.5 193t249.5 81q31 0 64 -3l-2 -30q-33 3 -62 3q-146 0 -227.5 -72.5t-81.5 -171.5t81.5 -171t227.5 -72q29 0 62 3l2 -30q-33 -3 -64 -3q-34 0 -72 5l-5 -18q36 -7 36 -41q0 -25 -18 -37.5t-43 -12.5q-17 0 -32 6l10 28q9 -4 23 -4q30 0 30 20 q0 10 -32 10h-13l14 54q-114 24 -175.5 97.5t-61.5 165.5z" />
<glyph unicode="&#xf7e8;" horiz-adv-x="517" d="M66 0v536h396v-30h-366v-182h300v-30h-300v-264h366v-30h-396zM180 717l18 24l151 -109l-18 -24z" />
<glyph unicode="&#xf7e9;" horiz-adv-x="517" d="M66 0v536h396v-30h-366v-182h300v-30h-300v-264h366v-30h-396zM180 632l151 109l18 -24l-151 -109z" />
<glyph unicode="&#xf7ea;" horiz-adv-x="517" d="M66 0v536h396v-30h-366v-182h300v-30h-300v-264h366v-30h-396zM175 626l89 115l90 -115l-24 -18l-66 83l-65 -83z" />
<glyph unicode="&#xf7eb;" horiz-adv-x="517" d="M66 0v536h396v-30h-366v-182h300v-30h-300v-264h366v-30h-396zM172 650v50h50v-50h-50zM307 650v50h50v-50h-50z" />
<glyph unicode="&#xf7ec;" d="M1 717l18 24l151 -109l-18 -24zM70 0v536h30v-536h-30z" />
<glyph unicode="&#xf7ed;" d="M16 632l151 109l18 -24l-151 -109zM70 0v536h30v-536h-30z" />
<glyph unicode="&#xf7ee;" d="M-4 626l89 115l90 -115l-24 -18l-66 83l-65 -83zM70 0v536h30v-536h-30z" />
<glyph unicode="&#xf7ef;" d="M-7 650v50h50v-50h-50zM70 0v536h30v-536h-30zM128 650v50h50v-50h-50z" />
<glyph unicode="&#xf7f1;" horiz-adv-x="549" d="M66 0v559l387 -496v473h30v-559l-387 496v-473h-30zM156 661q25 47 70 47q29 0 57 -22q20 -15 38 -15q30 0 47 35l24 -18q-26 -47 -71 -47q-27 0 -56 21q-21 16 -39 16q-30 0 -46 -35z" />
<glyph unicode="&#xf7f2;" horiz-adv-x="656" d="M50 268q0 115 81.5 196.5t196.5 81.5t196.5 -81.5t81.5 -196.5t-81.5 -196.5t-196.5 -81.5t-196.5 81.5t-81.5 196.5zM80 268q0 -103 72.5 -175.5t175.5 -72.5t175.5 72.5t72.5 175.5t-72.5 175.5t-175.5 72.5t-175.5 -72.5t-72.5 -175.5zM244 717l18 24l151 -109 l-18 -24z" />
<glyph unicode="&#xf7f3;" horiz-adv-x="656" d="M50 268q0 115 81.5 196.5t196.5 81.5t196.5 -81.5t81.5 -196.5t-81.5 -196.5t-196.5 -81.5t-196.5 81.5t-81.5 196.5zM80 268q0 -103 72.5 -175.5t175.5 -72.5t175.5 72.5t72.5 175.5t-72.5 175.5t-175.5 72.5t-175.5 -72.5t-72.5 -175.5zM244 632l151 109l18 -24 l-151 -109z" />
<glyph unicode="&#xf7f4;" horiz-adv-x="656" d="M50 268q0 115 81.5 196.5t196.5 81.5t196.5 -81.5t81.5 -196.5t-81.5 -196.5t-196.5 -81.5t-196.5 81.5t-81.5 196.5zM80 268q0 -103 72.5 -175.5t175.5 -72.5t175.5 72.5t72.5 175.5t-72.5 175.5t-175.5 72.5t-175.5 -72.5t-72.5 -175.5zM239 626l89 115l90 -115 l-24 -18l-66 83l-65 -83z" />
<glyph unicode="&#xf7f5;" horiz-adv-x="656" d="M50 268q0 115 81.5 196.5t196.5 81.5t196.5 -81.5t81.5 -196.5t-81.5 -196.5t-196.5 -81.5t-196.5 81.5t-81.5 196.5zM80 268q0 -103 72.5 -175.5t175.5 -72.5t175.5 72.5t72.5 175.5t-72.5 175.5t-175.5 72.5t-175.5 -72.5t-72.5 -175.5zM210 661q25 47 70 47 q29 0 57 -22q20 -15 38 -15q30 0 47 35l24 -18q-26 -47 -71 -47q-27 0 -56 21q-21 16 -39 16q-30 0 -46 -35z" />
<glyph unicode="&#xf7f6;" horiz-adv-x="656" d="M50 268q0 115 81.5 196.5t196.5 81.5t196.5 -81.5t81.5 -196.5t-81.5 -196.5t-196.5 -81.5t-196.5 81.5t-81.5 196.5zM80 268q0 -103 72.5 -175.5t175.5 -72.5t175.5 72.5t72.5 175.5t-72.5 175.5t-175.5 72.5t-175.5 -72.5t-72.5 -175.5zM236 650v50h50v-50h-50z M371 650v50h50v-50h-50z" />
<glyph unicode="&#xf7f8;" horiz-adv-x="656" d="M50 11l71 71q-71 81 -71 186q0 115 81.5 196.5t196.5 81.5q105 0 184 -71l72 72l22 -22l-72 -72q72 -78 72 -185q0 -115 -81.5 -196.5t-196.5 -81.5q-107 0 -185 70l-71 -71zM80 268q0 -95 62 -165l350 351q-70 62 -164 62q-103 0 -175.5 -72.5t-72.5 -175.5zM164 81 q71 -61 164 -61q103 0 175.5 72.5t72.5 175.5q0 92 -62 164z" />
<glyph unicode="&#xf7f9;" horiz-adv-x="538" d="M60 193v343h30v-343q0 -75 52 -124t127 -49t127 49t52 124v343h30v-343q0 -91 -61 -147t-148 -56t-148 57t-61 146zM185 717l18 24l151 -109l-18 -24z" />
<glyph unicode="&#xf7fa;" horiz-adv-x="538" d="M60 193v343h30v-343q0 -75 52 -124t127 -49t127 49t52 124v343h30v-343q0 -91 -61 -147t-148 -56t-148 57t-61 146zM185 632l151 109l18 -24l-151 -109z" />
<glyph unicode="&#xf7fb;" horiz-adv-x="538" d="M60 193v343h30v-343q0 -75 52 -124t127 -49t127 49t52 124v343h30v-343q0 -91 -61 -147t-148 -56t-148 57t-61 146zM180 626l89 115l90 -115l-24 -18l-66 83l-65 -83z" />
<glyph unicode="&#xf7fc;" horiz-adv-x="538" d="M60 193v343h30v-343q0 -75 52 -124t127 -49t127 49t52 124v343h30v-343q0 -91 -61 -147t-148 -56t-148 57t-61 146zM177 650v50h50v-50h-50zM312 650v50h50v-50h-50z" />
<glyph unicode="&#xf7fd;" horiz-adv-x="553" d="M50 526l22 19l203 -253l206 255l22 -21l-213 -263v-263h-30v263zM191 632l151 109l18 -24l-151 -109z" />
<glyph unicode="&#xf7fe;" horiz-adv-x="392" d="M66 0v536h30v-101q24 2 35 2q100 0 155.5 -49.5t55.5 -118.5q0 -68 -55.5 -118t-154.5 -50q-24 0 -36 1v-102h-30zM96 132q13 -1 36 -1q85 0 132.5 41t47.5 97t-47.5 97t-133.5 41q-11 0 -35 -2v-273z" />
<glyph unicode="&#xf7ff;" horiz-adv-x="553" d="M50 526l22 19l203 -253l206 255l22 -21l-213 -263v-263h-30v263zM183 650v50h50v-50h-50zM318 650v50h50v-50h-50z" />
<glyph horiz-adv-x="518" d="M55 350q0 68 21.5 130.5t62.5 113t107.5 80.5t148.5 30q40 0 73 -3l-2 -30q-33 3 -71 3q-142 0 -223.5 -91t-86.5 -218h294v-30h-294q5 -127 86 -217.5t223 -90.5q39 0 72 3l2 -30q-33 -3 -74 -3q-82 0 -148 30t-107 80.5t-62.5 112.5t-21.5 130z" />
<glyph horiz-adv-x="503" d="M50 268q0 112 89.5 194t250.5 82q30 0 63 -3l-2 -30q-33 3 -61 3q-141 0 -222 -68t-88 -163h295v-30h-295q6 -95 87.5 -162.5t221.5 -67.5q29 0 62 3l2 -30q-33 -3 -64 -3q-160 0 -249.5 82t-89.5 193z" />
<glyph horiz-adv-x="412" d="M50 213q0 73 48.5 129.5t133.5 76.5v92h30v-86q34 4 54 4q13 0 41 -2l-2 -30q-28 2 -39 2q-107 0 -171.5 -54t-64.5 -132t64.5 -132t171.5 -54q11 0 39 2l2 -30q-28 -2 -41 -2q-20 0 -54 4v-86h-30v91q-85 21 -133.5 77.5t-48.5 129.5z" />
<glyph horiz-adv-x="400" d="M70 625v30h260v-30h-260z" />
<glyph horiz-adv-x="562" d="M50 278q0 67 23 121t59.5 84.5t76 46.5t76.5 16q112 0 169.5 -77.5t57.5 -190.5v-15h-431q4 -108 64 -175.5t150 -67.5q79 0 138 50l20 -22q-67 -58 -158 -58q-113 0 -179 83t-66 205zM81 293h400q-3 95 -52.5 159t-143.5 64q-71 0 -135 -58.5t-69 -164.5z" />
<glyph horiz-adv-x="555" d="M21 506v30h45v115q0 95 42.5 149t107.5 54q59 0 99 -46t40 -98v-174h158v-30h-158v-318q0 -78 42.5 -118.5t110.5 -40.5q14 0 23 1l4 -30q-9 -1 -27 -1q-81 0 -132 48t-51 141v318h-45v30h45v174q0 43 -30.5 78.5t-78.5 35.5q-52 0 -86 -46t-34 -127v-115h158v-30h-158 v-799h-30v799h-45z" />
<glyph d="M-248 -225l21 23q65 -60 127 -60q79 0 124.5 61.5t45.5 149.5v587h30v-596q0 -99 -56.5 -166t-143.5 -67q-80 0 -148 68zM60 651v49h50v-49h-50z" />
<glyph horiz-adv-x="826" d="M60 0v344q0 95 54.5 148.5t129.5 53.5q54 0 100.5 -30t68.5 -86q22 56 68.5 86t100.5 30q74 0 129 -53.5t55 -148.5v-344h-30v344q0 81 -46 126.5t-108 45.5t-108 -45.5t-46 -126.5v-344h-30v344q0 81 -46 126.5t-108 45.5t-108 -45.5t-46 -126.5v-344h-30z" />
<glyph horiz-adv-x="538" d="M60 0v343q0 89 61 146t148 57t148 -57t61 -146v-343h-30v343q0 76 -52 124.5t-127 48.5t-127 -48.5t-52 -124.5v-343h-30z" />
<glyph horiz-adv-x="304" d="M60 0v348q0 89 61 146t148 57v-30q-75 0 -127 -48.5t-52 -124.5v-348h-30z" />
<glyph horiz-adv-x="850" d="M60 350q0 151 107 258t258 107t258 -107t107 -258t-107 -258t-258 -107t-258 107t-107 258zM90 350q0 -139 98 -237t237 -98t237 98t98 237t-98 237t-237 98t-237 -98t-98 -237zM326 160v385q11 1 31 1q91 0 139.5 -35.5t48.5 -87.5q0 -35 -25.5 -66t-70.5 -46l109 -142 l-24 -18l-116 152q-21 -3 -46 -3h-16v-140h-30zM356 330h14q67 0 106 28t39 65t-39 65t-106 28h-14v-186z" />
<glyph horiz-adv-x="484" d="M50 395q0 60 44 100.5t106 40.5h194v-30h-194q-50 0 -85 -31.5t-35 -79.5t35 -80t85 -32h84q62 0 106 -41t44 -101t-44 -100.5t-106 -40.5h-194v30h194q50 0 85 31.5t35 79.5t-35 80t-85 32h-84q-62 0 -106 41t-44 101z" />
<glyph horiz-adv-x="453" d="M21 252v30h71q-11 62 -11 101q0 68 47 110.5t133 42.5v-30q-74 0 -112 -34t-38 -89q0 -39 12 -101h78v-30h-72q12 -70 12 -103q0 -45 -18 -79q7 1 15 1q42 0 95 -25q52 -23 83 -23q47 0 82 34l20 -22q-45 -42 -102 -42q-34 0 -91 24t-87 24q-18 0 -52 -21 q-29 -17 -48 -20l-5 30q30 7 54 39t24 80q0 27 -13 103h-77z" />
<glyph horiz-adv-x="452" d="M21 506v30h45v173h30v-173h157v-30h-157v-318q0 -77 41.5 -125t115.5 -48q86 0 155 61l18 -24q-75 -67 -170 -67q-89 0 -139.5 57.5t-50.5 147.5v316h-45z" />
<glyph horiz-adv-x="826" d="M60 192v344h30v-344q0 -81 46 -126.5t108 -45.5t108 45.5t46 126.5v344h30v-344q0 -81 46 -126.5t108 -45.5t108 45.5t46 126.5v344h30v-344q0 -95 -54.5 -148.5t-129.5 -53.5q-54 0 -100.5 30t-68.5 86q-22 -56 -68.5 -86t-100.5 -30q-74 0 -129 53.5t-55 148.5z" />
</font>
</defs>
</svg>
